<?xml version="1.0" standalone="no"?>
<!DOCTYPE svg PUBLIC "-//W3C//DTD SVG 1.1//EN" "http://www.w3.org/Graphics/SVG/1.1/DTD/svg11.dtd" >
<svg xmlns="http://www.w3.org/2000/svg">
<metadata></metadata>
<defs>
<font id="zxxcamo" horiz-adv-x="1331" >
<font-face units-per-em="2048" ascent="1577" descent="-471" />
<missing-glyph horiz-adv-x="500" />
<glyph horiz-adv-x="0" />
<glyph unicode="&#xd;" horiz-adv-x="681" />
<glyph unicode=" " />
<glyph unicode="!" d="M141 496q10 51 52.5 74.5t80.5 4.5h37q0 4 5.5 20.5t7.5 26t9 27t14 29.5t20.5 27.5t27.5 27.5q78 53 187 17v632h166v-348l12 13q61 53 112 10q27 -27 31 -35v51q0 78 55 121q33 29 68 30t45 -14q25 -14 57 -77l7 -9q37 0 55 -59q20 -72 -43 -104q-53 -29 -103 34 q8 -16 9 -41q0 -74 -68 -129q-35 -25 -72 -24q-25 0 -41 16q-41 27 -51 78h-4q-37 -27 -69 10v-495h-166v108q-20 0 -31 2h-33q-20 -98 -55 -133q-15 -14 -33 -22q-53 -35 -98 -35q-68 0 -109 24q-51 18 -73.5 57.5t-8.5 84.5zM524 0v283h119q-4 68 41 100q72 33 137 -27 q4 63 62 86q43 12 82 -8t90 -65q27 -27 37 -29q53 -18 73 -51q31 -31 6 -78q-6 -12 -36 -27q-45 -27 -129 25q0 -94 -74 -107q-35 -16 -84 15q4 -12 -10 -41q-10 -10 -33 -19v-57h-281z" />
<glyph unicode="&#x22;" d="M252 1182l74 411h262l-74 -411h-262zM743 1182l74 411h264l-73 -411h-265z" />
<glyph unicode="#" d="M145 330l21 166h129l43 366h-166l21 166h165l41 332h166l-41 -332h387l41 332h166l-41 -332h129l-20 -166h-129l-43 -366h166l-21 -166h-166l-41 -330h-166l41 330h-387l-41 -330h-166l41 330h-129zM461 496h387l43 366h-387z" />
<glyph unicode="$" d="M172 383v82h166v-82v-10q4 -88 72.5 -143.5t171.5 -73.5v426q-180 16 -287 113.5t-121 228.5q-2 6 -2 18v10v9q0 141 108.5 251.5t301.5 128.5v154h166v-158q174 -20 291.5 -124.5t117.5 -270.5v-82h-166v82v10q-6 104 -92 160q-63 45 -151 57v-426q180 -16 287.5 -114.5 t119.5 -229.5q2 -4 2 -16v-8v-10q0 -141 -108.5 -252t-300.5 -129v-158h-166v162q-137 14 -246 88q-164 113 -164 307zM338 952q4 -74 66.5 -132t177.5 -70v421q-104 -18 -174 -75.5t-70 -143.5zM748 156l2 2q102 16 171.5 72.5t69.5 142.5q-4 74 -66.5 132t-176.5 70v-419z " />
<glyph unicode="%" d="M160 184l829 992h185l-830 -992h-184zM160 1071q0 119 85 204t205.5 85t205.5 -85t85 -204q0 -121 -86 -207t-204.5 -86t-204.5 86t-86 207zM301 1071q0 -63 44 -107t105.5 -44t106.5 44t45 107q0 61 -45 105.5t-106 44.5q-59 0 -104.5 -44t-45.5 -106zM590 291 q0 121 86 206t207 85t206 -85t85 -206q0 -119 -86.5 -205t-205 -86t-205.5 86t-87 205zM731 291q0 -59 46.5 -104.5t105.5 -45.5q61 0 105 45t44 105q0 63 -44 107t-105 44q-59 0 -105.5 -44t-46.5 -107z" />
<glyph unicode="&#x26;" d="M156 471q0 135 64.5 238.5t174.5 156.5q-53 88 -53 224q0 123 66.5 205.5t205.5 82.5h13q131 -4 195.5 -87t64.5 -201q0 -127 -47 -212t-135 -116l258 -387q12 43 12 96v268h166v-268v-12q-2 -139 -72 -248l57 -84l48 -68l-66 -47l-2 -2h-2l-64 -47l-49 68l-39 57 q-133 -92 -305 -92q-195 0 -336 119q-156 131 -155 356zM322 471q0 -150 96 -229.5t229 -79.5q127 0 213 65l-336 506q-84 -20 -143 -83.5t-59 -178.5zM508 1012.5q-2 -37.5 24.5 -70.5t81.5 -33q31 2 52.5 14.5t32 25t16.5 37t7 35.5t-1 40v29q0 72 -34 97t-73 25 q-23 0 -44 -7t-41.5 -36.5t-20.5 -78.5v-7q2 -33 0 -70.5z" />
<glyph unicode="(" d="M377 354v617q-2 236 150.5 386t340.5 150h84v-166h-84q-129 0 -227 -111.5t-98 -289.5v-557q0 -178 98 -289.5t227 -111.5h84v-166h-84q-197 4 -343 161.5t-148 376.5z" />
<glyph unicode=")" d="M377 -18h84q129 0 227 111.5t98 289.5v557q0 178 -98 289.5t-227 111.5h-84v166h84q188 0 340.5 -150.5t150.5 -385.5v-617q-2 -219 -148.5 -376.5t-342.5 -161.5h-84v166z" />
<glyph unicode="*" d="M178 858v166h289l-203 203l117 116l203 -202v286h166v-286l202 202l115 -116l-203 -203h289v-166h-289l203 -203l-115 -116l-202 202v-286h-166v286l-203 -202l-117 116l203 203h-289z" />
<glyph unicode="+" d="M197 616v166h387v422h166v-422h385v-166h-385v-421h-166v421h-387z" />
<glyph unicode="," d="M287 -164h92h12q98 2 137 36t47 128h-59v313h313v-313h-69q-12 -178 -91 -263t-290 -85h-92v184z" />
<glyph unicode="-" d="M418 573v166h497v-166h-497z" />
<glyph unicode="." d="M508 0v313h313v-313h-313z" />
<glyph unicode="/" d="M188 0l752 1360h203l-752 -1360h-203z" />
<glyph unicode="0" d="M78 676q-63 123 14 229l90 64q29 182 130.5 286.5t250.5 104.5h205h10q100 -4 178 -53q29 72 84 88q33 4 61.5 -11.5t39.5 -52.5q14 -72 -33 -90q-10 -20 -16 -74l-2 -10q70 -135 69 -334v-284q0 -51 -6 -97q45 -25 82 -90q14 -25 22 -30q43 -18 52 -60q6 -37 -7.5 -65.5 t-37.5 -36.5q-29 -12 -56.5 4t-38 30.5t-32.5 49.5q-16 20 -21 24q-2 -6 -20 -55q-18 -61 -36 -93t-50 -44q-12 -8 -33 -4q-84 -70 -209 -72h-205q-186 2 -287.5 154.5t-103.5 384.5v32q-8 8 -43 46t-51 59zM311 414q10 0 17.5 2t11.5 5t6 3q35 -258 217 -258h205h10 q8 0 15 2q-4 12 -5 16q0 14 -3 36t-3 32q0 88 54 108q45 27 118 -63q39 98 39 270v226v14q0 125 -24 211q-45 10 -68 53q-14 43 2 70q-49 53 -135 53h-205h-10q-63 -4 -104 -35q68 -31 47 -98q10 -8 23 -16.5t30.5 -15.5t23.5 -11q129 -59 152 -125q20 -37 0 -102 q-12 -33 -57 -63t-117 -23q-100 29 -121 43q-4 0 -92 28v-67l4 -4q109 -96 100 -177q-2 -2 -8 -15t-12 -22.5t-20.5 -23.5t-37 -27.5t-53.5 -25.5zM554 522q-1 43 26 90q4 18 18 33q31 41 73 57.5t62.5 15.5t52.5 -7q29 23 68 18q27 -8 41 -34.5t8 -59.5q-25 -66 -88 -80 q-31 -4 -57 4q-33 10 -42 8t-26 -24v-15l6 -2q25 -35 35 -64.5t0 -83.5t-49 -122q-20 -25 -47 -31t-47 8q-27 20 -32 50t15 57q29 49 29 74l-8 8q-20 27 -28.5 42t-9.5 58z" />
<glyph unicode="1" d="M174 0v166h363q12 31 34 61q0 2 -4 6.5t-4 10.5q-18 16 -37 16l-32 -16q-53 -33 -99 -33q-86 0 -119 76q-20 33 -14 65.5t37 53.5q70 31 104 -17q43 25 73 37t92.5 2t117.5 -66l8 -8v289q-6 2 -20 2q-127 45 -152 174q16 106 26.5 130t55.5 69q-57 14 -96 94q-4 16 -4 29 l-230 -64v166l420 117h166v-96q74 18 119 -7q29 -8 43 -24t31 -49q6 -18 9 -44t-15.5 -66t-57.5 -73q-74 -45 -117 -55q-8 -4 -12 -8v-84q127 8 176 -55q2 -4 8.5 -20.5t10.5 -29t3 -33t-9 -38.5q-2 -6 -8.5 -24.5t-14.5 -28.5q-53 -45 -117 -25q-16 6 -49 35v-469h299v-166 h-397q-8 -16 -14 -23q-31 -34 -72 -34l-10 2q-8 2 -21.5 8t-17.5 8q-16 14 -41 39h-412z" />
<glyph unicode="2" d="M106 225.5q9 34.5 37 50.5q20 16 55 9.5t51.5 -15t49.5 -28.5l66 63q18 63 71 86q12 4 21 4l65 66q-25 14 -65 69q-16 25 -19 29q-37 10 -41 59q0 29 18.5 46.5t47.5 17.5q16 0 32.5 -7t24.5 -15.5t24.5 -26t20.5 -21.5l4 -2q72 127 138 146q51 16 104 -13l178 177 q-8 121 -94 196q-2 2 -7 6t-7 6q-47 -88 -170 -77q-96 27 -121 43q-6 2 -60.5 19t-74.5 17q-6 -4 -17 -14q4 -8 14.5 -19.5t27 -26.5t20.5 -19q109 -94 102 -177q-2 -4 -9 -20t-13.5 -27.5t-21.5 -26t-36 -20.5q-8 -4 -17 -10t-16.5 -8t-17.5 -2h-8q-66 8 -94 63 q-2 35 -31 76v-14v-82h-166v82v12q2 109 43 193q-16 90 37 161q86 63 110.5 73.5t86.5 10.5q-27 45 0 135q25 39 67.5 51.5t85.5 -12.5q70 -31 53 -102q10 -8 23.5 -16.5t31 -15.5t23.5 -11q16 -8 27 -12q166 -29 278.5 -145.5t118.5 -305.5q4 -20 -2 -37q2 -4 5 -14t5 -14 q8 -10 16.5 -30t10.5 -24q18 -74 -29 -100q-37 -37 -96 8l-27 27l-2 6h-4v-12q-2 -6 -5 -20.5t-5 -23t-6 -22.5t-8 -23.5t-11.5 -21.5t-15.5 -19.5t-19.5 -13.5t-23.5 -10q-35 -10 -78 4l-264 -258q2 -2 5 -6t3 -6q16 -31 25 -35q37 -20 45 -53q6 -18 2 -37l233 2 q0 37 -6 53q-57 25 -57 68q0 31 23.5 49t58.5 18q31 0 61 -16v125h166v-440q4 -12 4 -19q0 -27 -21.5 -46t-56.5 -19h-6h-10q-82 4 -117 59h-778v72q-2 12 0 20v27l2 2q-35 2 -65 43q-12 27 -3 61.5z" />
<glyph unicode="3" d="M48 1114.5q9 34.5 38 50.5q53 25 135 -22q61 104 182 160.5t263 56.5h16h4q221 0 347 -113.5t126 -267.5v-8v-10q0 -12 -2 -19q-12 -106 -80 -184q4 0 10.5 -1t8.5 -1q4 -2 21.5 -9.5t29.5 -14.5t26.5 -22.5t22.5 -35.5q20 -49 21 -60v-8q-8 -66 -66 -98q-2 0 -7 -2 t-7 -2q14 -39 20 -86q2 -6 2 -19v-8v-10q0 -154 -126 -267.5t-347 -113.5h-4h-14q-195 0 -330 94q-164 111 -164 305v84h166v-84q0 -113 98.5 -173t229.5 -60q129 0 227 59.5t98 163.5q0 4 -1 11.5t-1 11.5l-51 -47q-133 -61 -246 18q-68 90 -79 116.5t-11 94.5 q-49 -31 -143 -2q-43 23 -55.5 70t12.5 94q33 76 110 55q10 10 17.5 24.5t14.5 35t11 26.5q68 137 134 162q37 18 112 0q35 -16 65.5 -63.5t22.5 -125.5l-12 -57q94 59 100 158q-6 100 -92 159q-92 63 -235 64q-66 0 -117 -14q16 -31 24 -35q37 -20 45 -53q12 -35 -8 -62 q-16 -31 -49 -37q-59 -14 -106 43q-25 -84 -80 -102q-20 -10 -35 -10v-47h-166v84v12v10q-6 6 -23.5 15.5t-21.5 11.5q-45 -2 -78 43q-12 27 -3 61.5z" />
<glyph unicode="4" d="M109 248q-63 119 14 229q84 61 109.5 72.5t78.5 11.5l6 6q-25 53 5 129q23 39 64.5 51.5t84.5 -12.5l29 33q-39 0 -58 18q-45 31 -45 150v43q-18 29 0 68q14 18 39 24t49 -6q8 -6 15.5 -13.5t11.5 -17.5t6 -17t3 -20.5t1 -18.5v-21.5v-20.5v-33l13 6q74 37 114 23 l393 428h119v-369q2 0 6 -4q23 -12 58 -78l4 -6q41 0 55 -61q23 -70 -41 -103q-43 -23 -82 13v-752h-166v299h-297q-49 -29 -116 -23q-14 4 -41 11.5t-39 11.5h-156q4 -4 13.5 -11t13.5 -12q109 -94 100 -176l-10 -26q-12 -25 -26.5 -42.5t-41.5 -25.5q-45 -20 -53 -20 q-68 0 -100 63q-4 27 -21.5 57.5t-35 52t-44 51.5t-32.5 38zM573 604q6 -2 31 -14q129 -55 152 -125h239v115q-20 8 -26 14q-41 31 -51 78h-5q4 0 -2 -2l-6 -2q-47 -20 -76 37q-12 33 -3.5 66.5t30.5 53.5q61 49 113 9q23 -18 26 -29v260z" />
<glyph unicode="5" d="M122 741.5q-1 44.5 34 79.5q4 6 16 19v520h985v-166h-186v-70v-41l16 9q121 59 180 8q31 -27 33 -68t-5 -60.5t-28 -66.5q-16 -33 -16 -41q0 -23 -10 -43q16 -12 22 -33q29 -70 -35 -118q2 -4 4.5 -12.5t4.5 -12.5q20 -70 26 -92q45 -135 45 -180q6 -80 -28.5 -127 t-79.5 -64q-14 -6 -47 -14l-15.5 -15.5t-16.5 -17.5t-15 -14q-127 -121 -322 -121h-4h-4h-2q-14 -13 -43 -25q-10 -10 -35 -10h-10q-49 6 -74 53l-2 5q-100 27 -182 96q-156 131 -156 356v84l100 -2q0 25 13 74q-57 -16 -129 35q-33 31 -34 75.5zM338 987h63q43 37 88 39 q43 10 101 -27q4 -2 14 -12h98h11q57 -2 121 -20q-25 41 -25 157v58l-6 12h-465v-207zM348 385q41 -154 201 -203v4q-20 68 -37 105q-8 33 -10 49q-86 -8 -154 45zM549 692q12 10 37 23q27 16 60.5 23t82.5 -7t90 -61q33 -31 119 -181q22 -40 45 -77v2q8 35 8 80v4 q-33 100 -45 164v14q-82 145 -262 145h-53l-4 -12q-37 -76 -72 -104zM672 412q2 -6 9 -30t11 -36q37 -127 37 -176l6 2q86 16 148 64q-51 68 -99 163q-8 16 -12 27q-8 -4 -12 -4q-16 -2 -64 6q-10 2 -12 -10zM956 907l31 -24q4 20 8 30q-37 -6 -39 -6z" />
<glyph unicode="6" d="M170 512q0 33 2 47v354l2 7q12 207 156.5 323.5t335.5 116.5q199 0 345 -126t146 -349v-82h-20q-10 -41 -41 -53q59 -100 59 -238v-20q2 -4 2 -17q0 -25 -4 -74q33 -25 43 -69q6 -31 2 -119q-6 -76 8 -98q27 -4 44.5 -22.5t13.5 -45.5q-15 -49 -60 -61q-14 -4 -22 0 q-104 12 -119 96q-10 45 -10 88q-23 -27 -62 -59q-127 -111 -309 -111h-27q-190 4 -327 119q-145 121 -156 327v48q-2 8 -2 18zM336 492q2 -5 2 -17q0 -150 96 -229.5t232 -79.5q39 0 69 8q0 33 6 64q-2 14 2 47q-41 20 -32 63q10 29 35.5 44.5t52.5 6.5q94 -8 90 -108 q45 92 92 117q8 39 8 86q0 80 -26 147q-20 -20 -31 -29q-37 -25 -70 -24q-18 0 -43 16q-37 27 -49 78h-6q6 0 0 -2q-2 0 -8 -2q-45 -23 -74 37q-25 57 12 104q-10 2 -30 2q-111 0 -195 -51q82 27 131 -14q31 -27 33 -68t-5 -60.5t-28 -66.5q-16 -33 -16 -41 q0 -41 -24.5 -65.5t-57.5 -24.5h-13q-23 2 -45 25q-41 43 -16 114q-59 -12 -88 -4q-4 -25 -4 -39v-34zM344 958l12 -6q25 -18 33 -39q123 74 293 74h10q104 0 185 -37q12 18 30 31q35 27 62 31q-25 61 -74 104q-90 78 -229 78q-115 0 -206 -60.5t-116 -175.5z" />
<glyph unicode="7" d="M172 1194v166h82h2h901v-64q2 -6 2 -18v-363q2 -10 -2 -30v-2q-2 -2 -2 -4v-2l-2 -5v-2l-2 -2q0 -4 -2 -4l-12 -18l-301 -354q117 41 217 -58q123 -121 24 -239q0 -14 27 -27q63 -63 12 -121q-35 -35 -74 -35q-10 0 -26.5 8.5t-22.5 10.5q-66 55 -85 109.5t-9 86t39 70.5 l-6 16q-18 16 -37 17q-18 -6 -35 -17q-53 -33 -96 -32q-55 0 -86 26l-262 -309h-219l323 381q-37 -12 -67 18q-16 16 -16.5 44t16.5 51q-8 31 -72 98q-45 70 -84 143q-47 102 27 180q20 31 59 42.5t109 -19.5q37 -18 126 -98q82 -72 95 -74q0 18 -60 94q-51 61 -71 105 q-20 37 -15.5 70.5t14 51t19.5 25.5q55 41 92 -4q39 -41 6 -94q29 -29 56 -74q68 -88 77 -117q12 -25 17 -59l145 172v260h-737h-2h-82zM464 726q9 -28 25 -52q47 -61 74 -119q26 -64 12 -113l154 181q-43 0 -84 20q-55 39 -106 90q-61 45 -72.5 33t-2.5 -40z" />
<glyph unicode="8" d="M172 381v8v10q0 12 2 19q16 164 166 262q-150 98 -166 262q-2 6 -2 19v8v10q0 154 126 267.5t347 113.5h4h15h16h4q221 0 347 -113.5t126 -267.5v-8v-10q0 -12 -2 -19q-16 -164 -166 -262q150 -98 166 -262q2 -6 2 -19v-8v-10q0 -154 -126 -267.5t-347 -113.5h-4h-14h-11 h-6h-4h-14q-213 4 -336 117.5t-123 263.5zM338 389q0 -20 6 -39q6 -6 51 -55h6q-6 0 0 4l7 4q68 117 131 137.5t159 -45.5q4 -6 29 -20q6 12 6 39q2 6 5 22.5t5 23.5t6.5 21.5t8.5 22.5t11 18t16.5 17.5t19.5 13.5q6 2 18.5 6t20.5 8v4q-70 27 -160 27h-39h-14 q-137 -4 -213 -65.5t-80 -143.5zM338 971q4 -84 84 -145.5t223 -61.5h39q143 0 223 61.5t84 145.5q-2 59 -37 106l-6 -24q-8 -23 -39.5 -43.5t-81.5 -16.5q-63 18 -82 31q-8 2 -38.5 13.5t-41 12.5t-24.5 -3q0 -10 43 -54q76 -66 70 -127q-2 -2 -6.5 -13t-9.5 -20.5 t-14 -18.5t-24 -13q-29 -14 -36 -15q-45 0 -68 43q-8 18 -8 45l-6 11v4q-2 2 -7 4q-49 53 -69 80q-43 84 8 164q55 43 76 51q-106 -14 -179 -71.5t-73 -145.5zM494 197q76 -31 172 -31q119 0 212 51t109 145q-41 -29 -88 13q-6 4 -29 26l-6 7q12 -1 0 -13q-2 -4 -2 -8 t-3 -16.5t-4 -17.5t-4 -17t-6 -18.5t-7 -16.5t-8.5 -16t-10.5 -13.5t-13 -12.5t-16.5 -10t-19.5 -7q-61 -20 -145 47q-8 2 -26.5 13t-25.5 11q-25 -14 -61 -84q-4 -4 -10 -15t-8 -17z" />
<glyph unicode="9" d="M174 848v2v16v15v4q0 203 131 334q131 141 342 141h4h17q190 0 334.5 -119t156.5 -326v-12v-237q23 -18 39 -50q10 -14 14 -20q35 -14 37 -43q6 -59 -30 -70q-33 -14 -60 17v-45q0 -211 -139 -332q-145 -123 -391 -123h-82v166h82h10q340 4 354 268l-8 8q-8 -27 -29 -53 q-8 -6 -22 -6h-10q-20 2 -33 25q-4 4 -4 10q-102 -45 -219 -45h-11h-6h-4h-12h-2q-16 -78 -76 -170q-29 -35 -71 -43t-70 14q-41 25 -48.5 67t23.5 76q45 70 45 101q-49 25 -100 65l-6 6q-156 133 -156 359zM340 866q0 -111 51 -192l12 18q10 29 27 45q100 121 283 88 q51 33 100 27q39 -10 60.5 -48t13.5 -83q-37 -88 -131 -109q-49 -4 -86 6q-51 12 -63.5 9.5t-37.5 -33.5q4 -4 4 -8t-2 -6l-2 -2l9 -7q-4 4 -7 4l11 -10q2 -2 14 -20q37 -6 72 -6q133 0 229 79.5t96 229.5v37q0 147 -96 231q-94 78 -229 78q-145 0 -238 -84 q-90 -92 -90 -244z" />
<glyph unicode=":" d="M494 84v344h344v-344h-344zM494 952v344h344v-344h-344z" />
<glyph unicode=";" d="M281 -66h92h12q96 2 134 33t48 117h-73v344h344v-344h-84q-14 -170 -94 -252t-287 -82h-92v184zM494 952v344h344v-344h-344z" />
<glyph unicode="=" d="M197 479v166h938v-166h-938zM197 811v166h938v-166h-938z" />
<glyph unicode="?" d="M100.5 996.5q8.5 33.5 30.5 52.5q61 49 113 10q27 -27 30 -35v51q0 78 56 119q23 18 41 25q76 182 295 182h14q98 -2 166 -45q39 53 90 59q33 0 58.5 -20.5t29.5 -57.5q0 -74 -47 -86q-10 -14 -16 -28q33 -78 32 -164q0 -18 -2 -27q16 0 60 -6q45 31 100 25 q39 -10 60.5 -48t13.5 -83q-37 -88 -131 -109q-51 -4 -88 6q-39 10 -66 4t-31 -20.5t4 -30.5q37 -49 52.5 -88t1 -112.5t-73.5 -168.5q-27 -33 -70 -43t-69 13q-46 -17 -105 -17h-12q-27 0 -49 6q20 -29 26 -41q8 -18 21 -30l12 -6h2q59 0 100.5 -41t41.5 -101 q0 -57 -41 -99t-101 -42q-57 0 -98 42t-41 99q0 31 12 60q-2 2 -4 5t-2 5q-4 4 -10 12t-10 13q-10 -31 -23 -56q-35 -117 -84 -137q-43 -23 -82 27q-8 -35 -39 -76q-14 -8 -32 -8q-43 0 -62 32q-10 18 -10 47t10 46q0 6 -3 22.5t-3 18.5q0 14 -4 35.5t-4 31.5q0 88 53 109 q33 18 60.5 -3.5t66.5 -70.5l14 -18v10q2 4 10.5 24.5t11.5 27.5t11 24.5t13.5 25.5t13.5 21.5t16 20.5t18.5 14.5t20.5 9.5q-92 78 -92 229q0 137 84 204.5t205 67.5q27 0 58.5 8.5t67 41t35.5 88.5h-4q-29 0 -51 20.5t-29 46.5q-8 53 23 80q-41 35 -100 35 q-53 0 -94.5 -28.5t-57.5 -80.5q33 -6 47 -61q20 -70 -43 -102q-53 -29 -102 34q8 -16 8 -43q0 -72 -68 -129q-37 -23 -71 -22q-25 0 -41 16q-41 27 -51 78h-5q-18 -14 -43.5 -6t-40.5 39q-12 33 -3.5 66.5zM543 643q0 -72 33.5 -97.5t72.5 -25.5h6q100 6 101 113 q-51 70 -58 119q-10 -2 -32 -2q-72 0 -97.5 -34t-25.5 -73zM889 172q-10 57 33 86q8 18 24 51q45 145 135 158q33 0 58.5 -21.5t29.5 -58.5q0 -76 -47 -84q-12 -14 -30 -70q-47 -119 -115 -129h-8q-29 0 -51.5 20.5t-28.5 47.5z" />
<glyph unicode="@" d="M129 686q0 270 151.5 468t409.5 198h6q147 -2 265 -86t178.5 -205t60.5 -246q0 -215 -127 -385v-199h-166v60q-82 -41 -180 -41q-143 0 -245.5 101.5t-102.5 244.5t102.5 244.5t245.5 101.5q96 0 178 -50t127 -134q4 41 4 57q0 143 -104.5 257t-239.5 114 q-176 0 -287.5 -143.5t-111.5 -356.5q0 -258 116.5 -435t321.5 -177h84v-166h-84q-276 0 -439 227t-163 551zM547 596q0 -72 54 -126t126 -54t126 53t54 127t-53 127t-127 53q-72 0 -126 -53t-54 -127z" />
<glyph unicode="A" d="M125 860q-27 53 -27 106q0 64 41 126q88 63 112.5 72.5t86.5 9.5q-16 24 -16 58t16 77q24 39 66 52q15 5 29 5q28 0 56 -16q58 -24 58 -75q0 -14 -4 -30q2 0 9 -6t11 -8l23 69l20 60h117l20 -60l152 -448q45 41 123 55h6q27 0 47.5 -25.5t24.5 -60.5q1 -7 1 -14 q1 -29 -13 -55q-16 -32 -46 -41q-14 -4 -27.5 -8.5t-19.5 -7.5t-8 -3v-18q0 -39 -6 -62l151 -446h2l56 -166h-166l-35 102l-41 121l-274 -2q0 -18 -2 -26q-12 -100 -99 -129h-30q-61 0 -115 69q-20 45 -29 88h-10l-41 -121l-35 -102h-168l33 92q0 8 4 12l4 15l164 481 q-59 8 -88 62q-10 23 -10 63q0 10 -12 10q-18 23 -58.5 67t-52.5 58zM324 965q0 -14 65 -74l43 -41l29 86q-94 33 -124 33q-10 0 -13 -4zM459 432q14 -10 39 -35q8 74 88 105q8 1 16 1q59 0 82 -69q4 -16 -6 -45h209l-31 88h-2q-26 -7 -49 -7q-109 0 -154 155l-8 4 q-37 18 -47 73q-2 17 -2 31q0 71 57 88q14 5 27 5q42 0 74 -50l-47 131q-37 -16 -78 -16h-9zM799 1302q10 36 45 54q18 10 34 11h3q15 0 39 -10q26 -11 38.5 -19.5t51.5 -34.5l12 -9q14 -8 43 -24.5t37 -20.5q47 -14 72 -61q3 -12 3 -25q1 -22 -9 -44q-14 -34 -48 -48h-35 q-55 0 -161 82q-43 20 -54 35q-53 16 -63 43q-12 22 -12 45q0 13 4 26z" />
<glyph unicode="B" d="M86 678q6 31 30.5 46t51.5 9v627h362q34 20 72.5 20t81.5 -20h14h9q162 -6 272 -78l80 -16q14 3 27 3q38 0 57 -28q13 -18 13 -38q0 -5 -1 -11q-4 -26 -29 -39q-4 -2 -10 -2t-8 -2q45 -78 45 -170q0 -186 -168 -299q168 -113 168 -299q0 -94 -53 -182q12 -14 35 -80 q0 -20 4 -25q12 -20 6 -39q-12 -39 -53 -39h-5q-18 4 -30.5 17.5t-16.5 24t-10 36.5v8q-4 0 -10 -2l-4 -2q-4 -2 -19.5 -10t-21.5 -12q-113 -70 -268 -76h-9h-530v584q-20 4 -27 8q-35 10 -50 34q-9 15 -9 31q0 10 4 21zM334 166h280q-2 4 -2 14q12 39 47 39q4 4 19.5 11.5 t17.5 9.5q83 41 121 41q8 0 14 -2q33 -12 60 -60q96 63 96 162q0 119 -123 178q-6 -47 -47 -70q-17 -9 -33 -9q-36 0 -67 46q6 -18 6 -43q0 -78 -68 -129q-39 -24 -67 -24h-2q-18 0 -43 16q-37 25 -49 78h-7q6 0 0 -2q-2 0 -8 -2q-12 -6 -24 -6q-29 0 -49 43q-9 25 -9 47 q0 42 33 74q18 14 35 20h-131v-432zM334 844q29 0 65 -13q27 -4 43.5 -24.5t14.5 -42.5h223h14q141 4 217 67.5t76 147.5t-69 141q-8 -2 -15.5 -3t-15.5 -3t-10 -2q-70 0 -185 76l-10 6h-2h-59q14 -25 41 -59q20 -29 29 -45.5t23.5 -43t18.5 -44t4 -40t-10 -42.5 q-10 -41 -90 -76h-35l-47 6l-37 27q-7 15 -7 28q0 38 60 58v6q0 31 -59 116q-55 61 -66 109h-112v-350zM524 598q8 -4 19 -12q23 -16 30 -35v47h-49z" />
<glyph unicode="C" d="M80 418q10 29 35.5 44t52.5 9v434v13q12 207 156.5 324.5t334.5 117.5q100 0 191 -33q20 12 45 16q33 0 58.5 -20t29.5 -59v-11q156 -123 168 -331q14 -16 14 -43q1 -8 1 -16q0 -35 -22 -62q-28 -33 -73 -33q-76 -8 -106 -29v-20q-4 -27 -6.5 -37t-15.5 -40t-30.5 -46 t-52.5 -33.5t-82 -23.5q-23 -10 -53 -11q-55 0 -99 16.5t-76 47.5t-45 49t-32 49q-53 14 -84 58q-8 20 -8 40q0 18 7 38q15 40 54 63q30 10 59 10q57 0 109 -41q31 -27 52 -70q2 -6 7 -16t7 -13t6 -11.5t6 -9.5t5 -6t6 -5t8.5 -2t10.5 -1t11 2t14 3q12 0 13 19q18 82 63 132 t162 76q-18 92 -78 148q-47 -113 -112 -123h-9q-29 0 -51 20.5t-29 47.5q-2 11 -2 21q0 42 35 65q16 37 23 47q-49 12 -99 12q-133 0 -229 -80t-96 -229v-410v-8q40 32 96 32q9 0 19 -1h5q26 0 60 -20q36 -22 51 -77q4 -15 4 -54q0 -26 -2 -64q-2 -20 -2 -36q0 -46 13 -63 q18 -2 34 -16q14 -2 47 -2q135 0 231.5 80t96.5 229h166q0 -223 -146.5 -349t-347.5 -126h-10q-188 4 -325 119q-4 4 -14.5 13t-16.5 13q-29 -18 -59 -18q-14 0 -29 4q-80 6 -101 88q0 59 7 88q-4 25 4 47q-36 15 -36 50q0 7 1 14zM383 299q25 -33 39 -45v2v20q2 35 2 56.5 t-2 29.5q-16 -10 -39 -63z" />
<glyph unicode="D" d="M72 535q0 72 75 120l19 13v692h532q8 0 15 -2q14 0 43 -4q16 -4 26 -6q12 -4 23 -9q104 -37 178 -120v2q20 61 54 81q24 15 45 15q8 0 16 -2q27 0 45 -20.5t18 -47.5q-10 -49 -63 -67q-4 -10 -9.5 -51.5t-7.5 -53.5q0 -2 -1 -6t-1 -6q74 -174 74 -383q0 -266 -109 -451 q-123 -211 -331 -227q-4 -2 -15 -2h-532v319q-29 29 -29 62q0 19 10 41v10h-8q-2 2 -14 12.5t-18.5 16.5t-16.5 18.5t-14 25.5t-4 30zM330 166h350q102 0 180 86h-6q-27 8 -80 41q-25 20 -53 33q-20 -35 -55 -35q-8 0 -17 2q-51 22 -51 71q0 17 6 37q16 61 60 82 q22 14 50 14q17 0 36 -5q-6 18 -6 33q0 22 12 40q14 33 39.5 42t52.5 -7q33 -14 33 -68q8 -12 20 -24q51 -45 57 -57q29 111 29 229q0 61 -10 137q-25 -12 -55 -12h-13q6 0 2 0q-2 0 -8 2q-96 16 -121 121q-12 45 -12 157q0 61 -4 91q-27 14 -53 16q-6 -10 -12.5 -22.5 t-14.5 -29t-12 -26.5q-25 -57 -45 -80q-30 -52 -73 -52q-13 0 -28 5q-27 8 -40 31.5t-5 48.5q10 41 56 53q18 31 24 54q4 10 10 20h-243v-320q31 6 61 -12q49 -27 49 -80q0 -11 -2 -22l19 -10q92 -47 102 -121q3 -13 3 -26q0 -58 -58 -114q-61 -64 -121 -64l-39 7h-10v-12 q-2 -2 -2 -10.5t-2 -10.5v-233zM891 1063q0 -68 8 -94q2 -20 7.5 -24.5t15.5 -4.5q14 0 18 18l2 5q-25 63 -51 100z" />
<glyph unicode="E" d="M82 788q0 68 65 68q10 0 23 -4v508h242q20 33 69 33q51 0 86 -33h590v-68q12 -25 14 -39q0 -76 -49 -84q-8 -8 -13 -21t-10 -28.5t-7 -21.5q-49 -117 -115 -129h-6q-29 0 -51.5 21.5t-30.5 47.5q-2 10 -2 20q0 41 35 66q8 18 24 52l6 18h-329q2 -12 5 -44t7 -38 q37 -6 63 -33q0 18 13 37q14 23 42.5 28t49.5 -9q29 -21 29 -54q0 -10 -3 -20q10 -23 19 -53q8 -12 17 -32t12 -22q4 -19 4 -35q0 -44 -33 -63q-16 -16 -42 -16t-54 22q-6 2 -29 27q0 6 -6 6v-12q0 -2 -2 -8.5t-2 -10.5q66 -14 114 -69q6 -4 27 -31h4v-4q14 -18 88 -146 q4 -8 20.5 -36.5t25.5 -43t21.5 -32t22.5 -23.5q2 5 2 13q0 37 -39 131q-33 98 -45 163q-1 11 -1 21q0 61 31 98q36 43 71 53q22 8 41 8q18 0 32 -6q32 -12 43 -47q9 -22 9 -42q0 -43 -43 -76q31 -102 34 -117q45 -135 46 -180q1 -12 1 -23q0 -64 -30 -104q-35 -47 -80 -64 q-37 -16 -73 -16q-75 0 -144 69q-51 68 -98 164q-10 20 -39 74h-92q4 -18 18 -61t20 -66q37 -127 37 -182q1 -15 1 -28q0 -58 -21 -95h440v-166h-987v664q-14 16 -29 38q-2 4 -9 14.5t-9 12.5q-41 14 -41 59zM336 166h178v2v8q0 54 53 86q0 39 -47 154q-29 123 -39 182h-145 v-432zM336 895q23 23 55 33q15 6 33 6q53 0 127 -51q4 -7 29 -21q6 12 6 39q14 63 20 78q-88 10 -119 86q-8 23 -14 66t-10 57v6h-127v-299zM393 764h101q-12 8 -17 12q-6 4 -17 10.5t-19.5 11.5t-14.5 5q-16 -14 -33 -39z" />
<glyph unicode="F" d="M172 0v1360h985v-166h-819v-354h287q8 23 55 69q-55 12 -96 95q-4 15 -4 30q0 26 14 52q22 40 70 53q24 10 43 10q42 0 67 -45q14 0 84 26q87 29 143 29q32 0 54 -10q29 -10 43 -26.5t30 -47.5q6 -19 10 -45q1 -4 0 -8q0 -24 -16 -57q-18 -39 -57 -72q-68 -45 -104 -53 h47v-97q72 -10 106 -53q0 -4 10.5 -29.5t10.5 -41t-11 -52.5q-16 -43 -22 -51q-34 -34 -76 -34q-19 0 -39 7q-23 10 -53 37q-2 4 -6 4t-6 -2l-4 -2q-27 4 -84.5 6.5t-83.5 4.5q-106 35 -142 137h-270v-105q2 0 7 -2t7 -4q14 -10 23.5 -22.5t14.5 -23.5t7 -30.5t2 -28.5v-34 v-31v-41l17 8q66 31 113 31q40 0 67 -22q31 -27 33 -68t-5.5 -60.5t-27.5 -66.5q-16 -33 -16 -41q0 -39 -25 -67q-23 -23 -57.5 -23t-57.5 23q-25 28 -25 65q0 23 9 49q-38 -6 -62 -6q-14 0 -24 2v-176h-166zM752 201q0 41 53 67q30 17 70 17h12q-11 17 -11 33q0 21 17 42 q11 18 37 24q9 2 18 3q17 0 33 -8q36 -11 36 -39q0 -7 -3 -16q12 0 12 -5q70 -29 74 -67q2 -7 2 -15q0 -31 -41 -61q-45 -34 -87 -34q-13 0 -26 3h-8q0 -6 -2 -13t-5 -15.5t-5 -14.5q-16 -34 -59 -34h-3q-4 0 -11 3t-15 3q-25 8 -35 27.5t0 37.5v6h-6q-47 33 -47 56z" />
<glyph unicode="G" d="M172 446v11v448v13q8 152 96 262q-74 45 -82 102q0 33 21.5 58.5t58.5 31.5q74 0 84 -49q12 -10 60 -27q115 63 254 64q193 0 329 -111q0 12 11 33q14 23 42.5 28t49.5 -10q30 -18 30 -54q0 -9 -2 -19q8 -31 19 -53q8 -12 16 -31t10 -23q4 -19 4 -35q0 -43 -30 -63 q16 -70 16 -137h-166q0 37 -6 71q-27 -51 -69 -61q-15 -5 -31 -5q-53 0 -115 52q-6 2 -17.5 9t-20.5 12.5t-15 5.5q-31 -25 -60 -86q-2 -4 -8 -13.5t-8 -13.5t-8 -12t-9 -11.5t-8.5 -10.5t-8.5 -10t-9 -8t-10 -7t-10.5 -4t-12.5 -5q-8 -4 -20 -4q-55 0 -113 84q-2 2 -8 13.5 t-10 13.5q-41 14 -41 59q0 31 18.5 49.5t48.5 18.5q12 0 23.5 -3t24 -14.5t17.5 -15.5t18.5 -20.5t15.5 -18.5h6q25 43 38 61.5t41.5 46t57.5 36.5q15 6 33 6q52 0 129 -51l26 -21q6 12 7 39l12 53q-88 74 -227 74q-53 0 -113 -16v-7v-10q-10 -55 -70 -71q-11 -2 -21 -2 q-23 0 -42 12q-80 -84 -80 -215v-373q22 11 42 11q29 0 56 -23q18 -27 51 -66q-23 82 -22 127q0 102 70 148q22 12 43 12q35 0 69 -31h53q-2 17 -2 33q0 35 12 61q19 37 38 41q20 16 43.5 8t35.5 -36q9 -19 9 -37q0 -28 -25 -51q4 -12 4 -19h344v-233v-13 q-12 -209 -157 -326.5t-338 -117.5h-11q-186 4 -323 119q-145 119 -158 327zM330 375l24 -6q31 -98 117 -150.5t193 -52.5q135 0 232 80t97 229v49h-129q0 -4 2 -12t2 -12q2 -15 2 -29q0 -65 -53 -119q-23 -18 -47 -18q-40 0 -82 49q-20 16 -59 104q-27 55 -47 78 q0 -20 18 -88q14 -55 20 -81q2 -12 2 -27q0 -20 -4 -47q-8 -46 -36 -72q-29 -23 -58 -23h-8q-27 4 -51 31q-25 16 -59 74q-4 2 -12.5 10t-24 17.5t-39.5 15.5z" />
<glyph unicode="H" d="M59 315q0 88 54 109q27 16 57 -2v739q-39 8 -59 56q-14 23 -14 43q0 28 30 49q25 10 43 8v43h166v-33q43 -14 80 -51q52 -52 52 -103q0 -41 -34 -81q0 -6 21 -21q20 -18 22 -41q59 25 158 25q16 10 16 20l2 6q-29 41 -26 49q-10 10 -15 13q-66 10 -127 55q-43 32 -43 79 q0 19 7 42q12 43 57 63q30 14 68 14q18 0 38 -3q82 -12 107 -74l6 -2q195 -59 205 -203q33 -16 51 -10q4 2 10 14v242h166v-105q4 -4 10.5 -11t8.5 -11q4 -4 11 -13.5t9 -11.5q12 4 25.5 -9t17.5 -38v-14q0 -55 -29 -64q-27 -16 -53 11v-346q63 -29 80 -74q20 -49 20 -60v-8 q-8 -66 -65 -98q-8 -4 -35 -8v-500h-166v373q-2 0 -5 -4t-5 -4q-25 -10 -45 -17q5 -18 5 -43q0 -39 -13 -94q0 -6 -3 -24.5t-3 -22.5q4 -18 4 -34q0 -29 -13 -54q-4 -20 -24.5 -32.5t-38.5 -12.5q-14 0 -41 16q-20 14 -30.5 35.5t-12.5 39t-2 52.5q-38 -24 -68 -24 q-35 0 -59 34q-31 20 -31 80q-12 -12 -31 -12q-12 -23 -34 -29q-10 -4 -21.5 -5t-19.5 1t-19.5 9.5t-16.5 11.5t-15.5 16t-12.5 16t-12 17.5t-10 15.5q-8 16 -21 27q-4 -14 -20 -58q-16 -55 -37 -92v-182h-166v90l-2 -2q-16 -6 -35 -6q-45 0 -59 33q-14 22 -14 45.5t14 46.5 q0 4 -4 21.5t-4 19.5q0 14 -3.5 34.5t-3.5 32.5zM336 492q8 8 31 16q13 5 27 5q59 0 118 -97l6 -13q14 16 47 29q12 10 25 33q35 41 59 57q-4 19 -4 72l-10 -6q-23 -11 -52 -11q-35 0 -81 15q-47 25 -58 82h-108v-182zM336 907l4 4q2 0 7 3.5t7 5.5l11 2q16 31 22 36 q-6 4 -14 9q-20 18 -37 37v-97zM870 580q14 0 76 67q4 4 12.5 13.5t12.5 13.5h-90q-18 -52 -18 -75q0 -15 7 -19zM934 975q14 -35 14 -77q0 -14 -2 -28l-6 -30h51v133q-29 -8 -57 2z" />
<glyph unicode="I" d="M92 836q-4 16 -4 31q0 31 16 63q27 60 80 60q15 0 31 -5q10 10 43 86q49 94 78 123h-166v166h987v-166h-412v-264h19q18 2 18 0q20 -10 31 -19q-2 20 2 50q6 6 6 26q-8 14 -8 30.5t8 35.5q18 27 43 27q17 0 37 -11q35 -16 35 -63q27 14 48 14q16 0 30 -8q29 -12 41 -70 q21 18 44 18q18 0 36 -12q10 -6 16 -14t9 -15.5t5 -21.5t2 -19.5v-23.5v-20q-6 -12 -6 -29q12 -27 6 -45q-16 -41 -57 -41h-8l-8 6q-35 12 -45 61q-21 -16 -47 -16q-16 0 -33 6q-33 18 -33 76q-29 -18 -47 -21q14 -25 14 -45v-8q-8 -63 -65 -96q-18 -6 -33 -6q35 -29 76 -58 q6 -4 37.5 -29.5t43 -35.5t35 -32.5t38 -44t26.5 -46.5q23 -46 23 -94q0 -68 -48 -137q-25 -29 -24 -33h49q22 4 44.5 4t43.5 -4h8v-2q41 -10 60 -41q6 -13 6 -26q1 -13 -5 -27q-12 -28 -42 -41h-19v-29h-987v156q-4 -1 -9 -1q-33 0 -55 42q-9 25 -9 46q0 42 34 74 q36 27 67 27q25 0 46 -18q23 -14 32 -35v51q0 82 56 121q38 33 69 33q22 0 41 -17q29 -14 58 -78l6 -6q41 0 55 -61q8 -33 -3 -60.5t-40 -42.5q-17 -10 -33 -10q-35 0 -67 45q6 -16 6 -43q0 -31 -12 -57h168v354q-35 -10 -67 -10q-71 0 -132 47q-70 92 -80 117.5t-10 91.5 q-28 -16 -63.5 -16t-80.5 16q-43 23 -55 70zM516 752q14 0 35 24q-12 43 -19 88q-22 -65 -22 -93q0 -15 6 -19zM745 166h103l2 10q4 33 37 84q16 29 21 39q6 12 6 36q0 21 -11 46q-25 57 -129 129q-2 2 -29 22v-366z" />
<glyph unicode="J" d="M94 270q0 59 58 72l28 29q-10 55 -10 104v84h166v-78q20 -2 41.5 -12t32 -18.5t34 -30t25.5 -23.5q2 -8 5 -13t9 -11t11 -13q20 35 28 52q59 115 131 129q18 8 38 8q44 0 93 -41q0 86 52 110q14 6 31 6q44 0 112 -42q0 -4 6 -4v40q0 10 4 27v57q-137 29 -182 107t-45 197 v18h-21q-37 16 -49 0q-10 -29 -20 -41q-8 -63 -54 -125q-32 -45 -78 -45q-20 0 -42 8q-43 10 -64 55q-14 32 -14 73q0 16 2 34q16 88 76 107l2 6q20 61 43 98h-74v166h686v-885q0 -223 -146 -349t-347 -126h-11q-188 4 -325 119q-55 47 -95 110q-30 -26 -66 -26h-3 q-31 0 -49.5 19.5t-18.5 47.5zM158 674q-4 12 -4 21q0 25 28 34v4q-14 33 -6 58q14 47 64 57q20 8 37 8q18 0 33 -8q28 -17 44 -66v-10q18 4 36 -6t20 -33q4 -16 -9.5 -31.5t-33.5 -19.5q-13 -3 -24 -3q-43 0 -67 36v-8q-8 -48 -61 -62q-2 0 -6 -3t-8 -3q-31 0 -43 35z M465 221q86 -55 197 -55q121 0 214 65.5t109 192.5q-23 6 -59 29q0 -106 -70 -134q-12 -4 -24 -4q-48 0 -107 62q-20 4 -35 35q-6 -6 -49 -70q-2 -2 -10 -16.5t-11.5 -17.5t-11.5 -15l-11 -16.5t-11 -14.5t-13.5 -14t-14.5 -11.5t-16 -10.5t-15.5 -6t-18.5 -3q-20 -2 -43 4z M913 1194q41 -66 41 -170v-29q8 0 35 -12v211h-76z" />
<glyph unicode="K" d="M105 1073q0 44 36 80q12 16 27 25v182h166v-94q78 86 139 90q9 2 19 2q36 0 81 -29q29 -18 43 -62q6 -18 6 -43q0 -36 -12 -85q-35 -72 -71 -105q-6 -10 -31 -47t-36 -61.5t-3 -32.5q8 -2 23.5 5t37 20.5t27.5 17.5l8 6l342 391l6 6l19 21h31h14h178l-147 -168h-2 l-209 -240q25 -29 26 -63q2 -8 5 -20.5t4.5 -17.5t-1.5 -20q-20 -63 -88 -79q-16 -2 -63 6h-1q-9 0 -95 -47l-25 -31l215 -246q2 6 16.5 38t20.5 44t19.5 33.5t27.5 33t31 17.5q12 4 25 4q60 0 120 -98q10 -20 23 -33q43 -14 51 -57q2 -11 2 -22q0 -24 -10 -44 q-14 -28 -37 -37q-29 -12 -56.5 4.5t-38 29.5t-32.5 50q-16 20 -21 25q-8 -25 -20 -57q-2 -6 -5 -16.5t-6 -18.5t-5 -15l129 -147l147 -168h-223l-62 70l-147 170q-14 -35 -33 -62q-14 -6 -33 -6q-47 0 -61 33q-14 24 -14 46.5t14 45.5q0 4 -4 21.5t-4 19.5q0 14 -3 33.5 t-3 27.5l-174 199h-74v-598h-166v977q-20 12 -29 18q-34 32 -34 78z" />
<glyph unicode="L" d="M76 918q18 52 67 75l9 13l-11 6q0 6 -5 27.5t-6 37t-1 37t8 41t23 35.5l6 6v164h166v-109q4 0 13 -1t13 -3q94 -6 152 -76q33 111 139 144q24 13 51 13q24 0 50 -11q54 -23 75 -78q12 -31 12 -59q0 -57 -51 -99l11 -28q36 -74 36 -135q0 -54 -28 -97q-49 -88 -191 -102 h-13q-165 0 -224 98l-10 6q-10 -12 -35 -28v-230q45 25 83 25q22 0 42 -8q47 -28 47 -72q0 -20 -10 -43q-30 -52 -66 -52q-8 0 -16 3q-18 -6 -64 -45q-2 -2 -7 -6.5t-9 -6.5v-194h293q2 2 4 5t4 5q43 66 43 98q-6 10 -14 15q-18 23 -23.5 30t-21 37.5t-15.5 53t9.5 61.5 t33.5 78q10 25 27 47q44 54 108 76q58 21 89 20h5q30 -2 80 -8q42 27 89 28q6 0 12 -1q39 -12 61 -49q15 -26 15 -56q0 -13 -3 -26q-37 -88 -131 -109q-15 -1 -30 -1q-29 0 -56 5q-51 12 -63 9t-37 -31q4 -4 4 -8.5t-2 -6.5l-2 -4l8 -4q29 -40 43 -70q16 -33 16 -85 q0 -50 -24 -109h299v-166h-987v332q-28 25 -28 64q0 13 3 26q12 25 25 37v286q-29 10 -45 25q-4 4 -13.5 21.5t-21.5 27.5q-16 29 -16 59q-1 19 6 40z" />
<glyph unicode="M" d="M121 1192q10 35 37 51q8 4 14 4v113h166l35 -119q16 92 80 115q16 6 31 6q56 0 114 -76q6 -6 14 -18q6 -6 9 -11q4 -4 8 -13t8 -14t10 -7q37 -23 45 -54q8 -35 -8 -61q-14 -31 -49 -37q-12 -3 -24 -3q-47 0 -85 46q-27 -88 -77 -104l-5 -2l74 -246q43 -4 80 -19 q42 -8 66 -48q15 -25 15 -51q0 -16 -5 -32q-14 -78 -82 -92l55 -186q10 31 37 49q8 4 12 4l105 342q-4 -2 -8 -10q-14 -8 -33 -8q-45 0 -62 34q-10 16 -10 45t10 48q0 4 -3 20t-3 19q0 14 -4 35.5t-4 33.5q0 82 53 109q12 6 22.5 7t23 -5t20.5 -10.5t21.5 -19.5t19.5 -21.5 t20 -24.5q6 -10 8 -12l119 391h166v-344l2 -2q45 -14 51 -60q2 -12 2 -23q0 -23 -9 -43q-13 -28 -36 -34l-10 -4v-551q6 -6 8 -10q17 -17 17 -39q0 -18 -11 -39l-6 -8q-2 -2 -8 -6v-197h-166v143q-18 -37 -59 -41q-12 -5 -25 -5q-26 0 -59 20q4 -12 -10 -41q-24 -24 -59 -24 q-7 0 -15 1l-16 -53h-166l-117 389q-16 -16 -35 -24q-53 -35 -92 -35v-330h-166v383q-37 33 -37 76q0 18 6 37q6 33 31 57v537q-27 8 -49 40q-7 15 -7 32q0 14 5 30zM338 659l4 9q6 14 27 39l-31 100v-148zM881 442h2q13 4 27 4q38 0 81 -26v387z" />
<glyph unicode="N" d="M172 0v1360h166l268 -430l25 12q20 12 51 20q12 3 25 2q23 0 52 -8q46 -12 85 -49q31 -31 88 -143q20 -53 59 -96v692h166v-1360h-166l-69 111q-41 -4 -60 -9q-59 0 -71 -6q-20 -57 -66 -57q-70 0 -70 82q0 88 90 123q20 10 86 14l-120 193q-25 -98 -115 -127 q-37 -19 -72 -19q-59 0 -112 55q-45 86 -56 113q-8 12 -18 31v-504h-166zM338 721q22 7 42 7q73 0 116 -89q-1 28 -1 52q0 60 7 93l-164 265v-328zM543 1149q0 53 63 80q34 21 76 21q11 0 23 -1q-13 22 -13 43q0 25 19 49q15 25 45 32q10 2 20 2q20 0 41 -9q43 -13 43 -52 q0 -8 -2 -16l14 -6q78 -29 89 -82q2 -8 2 -15q0 -38 -50 -79q-55 -41 -106 -41q-15 0 -31 4h-8q0 -10 -16 -51q-6 -16 -28 -28.5t-46 -12.5q-2 0 -12.5 3t-20.5 3q-29 8 -40 33t1 49v4h-8q-2 2 -9 7.5t-12.5 8.5t-12.5 10t-11 12t-7 14.5t-3 17.5zM887 481l88 -143l4 4l12 6 v103q-10 -1 -20 -1q-45 0 -84 31z" />
<glyph unicode="O" d="M96 662q-5 16 -5 33q0 30 15 61q20 47 68 57q12 135 51 237.5t89.5 160t116 92t118.5 46t113 11.5q76 0 139 -19q12 18 35 31q15 5 30 5q16 0 32 -6q32 -11 48 -44q10 -24 10 -47q0 -9 -2 -18q199 -166 199 -582q0 -197 -47 -344q25 -14 33 -55q5 -17 5 -32 q0 -48 -48 -73q-17 -9 -33 -9q-18 0 -35 11q-6 -6 -15 -18.5t-14 -18.5q-14 -61 -65 -100q-41 -25 -70 -25h-8q-16 4 -27 13q-76 -29 -167 -29h-7q-59 0 -114.5 12.5t-122 51t-115.5 99t-87 170t-46 253.5l-18 6q-42 25 -56 70zM367 406q24 -83 67 -140q80 -100 228 -100h16 q-2 12 -2 23q0 45 33 75q36 27 66 27q25 0 46 -19q23 -16 31 -34v51q0 80 55 121q33 27 56 28q24 96 24 231v11q0 250 -76 377q-12 -43 -49 -64l-8 -2l-10 -2q-10 -2 -20 -2q-39 0 -68 39q-14 25 -14 47q0 24 16 47q0 8 1 27.5t3 28.5v4q-43 14 -100 14h-13 q-137 -2 -215 -98q-8 -8 -20 -29q8 2 20 2q27 0 72 -10q36 -15 66 -63q24 -38 24 -95q0 -15 -2 -31q-20 -98 -43 -127q-2 -10 -10.5 -32.5t-14.5 -42t-11 -39t-4 -32.5t7 -17q20 0 76 67q35 39 58 59q22 22 59 38q30 13 59 13q7 0 14 -1q4 -2 21.5 -9.5t30 -14.5t27 -22.5 t22.5 -35.5q4 -8 10 -19.5t9 -20.5t3 -20v-8q-8 -66 -67 -98q-18 -6 -68 -10q-6 0 -9 -3t-3 -8v-2q-23 -18 -68 -61t-63 -59q-58 -28 -113 -28q-70 0 -133 46z" />
<glyph unicode="P" d="M84 475q0 27 22.5 47.5t55.5 20.5h6h2v112q-2 2 -7 5.5t-7 5.5q-34 32 -34 78q0 43 34 77q4 6 14 17v522h530h11q260 -14 379 -236h11q38 0 66 -24q31 -27 33 -68v-17q0 -27 -5 -43q-7 -20 -28 -67l-6 -12l-6 -12v-15q0 -190 -117.5 -335.5t-326.5 -157.5h-11h-110 q-29 -16 -58 -29q-27 -6 -52 -6q-61 0 -113 35h-31v-97q0 -8 4 -16q55 -20 55 -65q0 -57 -59 -68v-127h-166v352q-4 47 -8 56q-31 6 -54.5 24.5t-23.5 42.5zM336 920q90 102 153 106q9 2 19 2q36 0 82 -29q29 -18 43 -62q6 -18 6 -43q0 -36 -12 -85q-37 -76 -72 -104 q-6 -10 -30.5 -47t-36 -62t-3.5 -33q2 0 4 -1q7 0 19 6q16 7 37.5 20.5t27.5 17.5q85 60 150 60q25 0 47 -9q2 -2 19.5 -15t29.5 -29.5t19 -37.5q137 78 151 267q-6 23 0 47q-2 8 -2 22q-25 -5 -46 -5q-47 0 -75 24q-27 18 -40 54t-15 63.5t-2 76.5v45q-55 25 -127 25h-346 v-274z" />
<glyph unicode="Q" d="M135 868q-5 15 -5 28q0 35 40 52v2q-12 31 -12 54q0 14 4 26q2 8 10 25v119q0 76 53.5 129t128.5 53h621q76 0 129 -53.5t53 -128.5v-721q0 -45 -35 -68l-108 -78l129 -180l47 -68l-66 -47l-2 -2h-2l-63 -47l-49 68l-129 180l-279 -201q-16 -10 -41 -14h-4h-10h-191 q-76 0 -129 53t-53 129v649q-27 10 -37 41zM338 178l2 -8q4 -8 14 -8h82v20q0 6 -3 9.5t-7 3.5h-2q-14 18 -46 52t-40 44v-113zM338 557q80 57 103.5 66.5t82.5 9.5l-4 10q-9 22 -9 50q0 33 13 73q23 41 67 53q15 4 29 4q29 0 58 -16q58 -24 58 -73q0 -13 -5 -29 q10 -8 23.5 -16.5t31 -15.5t23.5 -11q129 -59 152 -125q16 -27 12 -56l18 15v424l-2 -5q-2 -2 -2 -4l-9 -18t-7 -23q0 -43 -25 -67q-23 -23 -55 -23h-12q-25 2 -45 23q-27 29 -27 67q0 22 10 48q-29 -4 -53 -4q-51 0 -76 20q-27 18 -40 55t-15 64.5t-2 76.5v58l-2 2h-275 l-8 -2q-8 -2 -8 -14v-62l6 -2q39 -25 62 -92v-12q0 12 6 2q60 15 89 15q32 0 29 -17q-4 -18 -47 -56q4 -23 -12 -43t-47 -26q-16 -2 -31 -2q-32 0 -55 12v-334zM512 422q0 -14 66 -74q65 -61 81 -92l123 88l-4 6q-92 29 -112 41q-12 2 -57.5 17.5t-62 18.5t-34.5 -5z M793 1090l16 8q63 32 109 32q41 0 69 -24l4 -4v72l-2 8q-6 8 -14 8h-182v-60v-40z" />
<glyph unicode="R" d="M80 1028q0 29 13 47.5t33.5 18.5t39.5 -13v279h532h11q145 -8 254 -88q8 4 17 5t17.5 -2t14.5 -6t14 -10.5t13 -11.5t14.5 -15t11.5 -13q0 -6 12 -19q18 0 33 -24q9 -17 9 -34q0 -23 -15 -46q49 -109 49 -230q0 -106 -41 -211q2 -11 2 -22q0 -51 -45 -107q0 -14 27 -26 q34 -34 34 -67q0 -28 -24 -54q-31 -35 -72 -35l-10 2q-8 2 -20.5 8t-18.5 8q-47 41 -65 70q-10 -6 -31 -14l241 -418h-192l-152 262q-6 -55 -20 -90q-33 -106 -129 -106h-10q-102 12 -129 120q-12 45 -13 158v29h-96q-27 -61 -43 -80q-2 -4 -8 -11.5t-6 -9.5v-272h-166v920 l-6 8q-4 6 -17.5 20.5t-15.5 18.5q-20 0 -33.5 18.5t-13.5 42.5zM332 539h4q53 73 121 73q20 0 41 -6q55 -14 82 -67h100q20 0 53 4q31 34 60 34q10 0 20 -4l14 -2q51 25 91 78q-14 12 -33 13q-16 -6 -33 -17q-53 -33 -96 -33q-88 0 -121 76q-15 25 -15 51q0 7 1 15 q6 34 36 53q28 12 50 12q34 0 55 -28q72 43 135 43q46 0 86 -23q4 37 4 55q0 66 -22 133l-11 -4q-9 -4 -20 -4q-34 0 -82 45q-29 32 -45 32q-5 0 -8 -3q-8 -4 -45 -59q-23 -35 -35 -52.5t-39 -39t-51 -25.5h-8q-48 0 -134 63q-55 39 -65 39q-14 0 -57 -57q-20 -29 -33 -41 v-354zM332 1065q45 49 84 51q53 0 119 -55q69 -45 83 -45q6 0 12.5 4t12.5 12t10 15.5t11.5 18.5t11.5 17q47 78 86 101q-41 10 -82 10h-348v-129zM608 344q0 -92 6 -117q4 -20 8.5 -24t14.5 -4q14 0 20 18q18 63 19 127q0 6 2 14.5t2 14.5h-72v-29z" />
<glyph unicode="S" d="M74 399q0 59 57 72q18 18 33 35q78 104 145 104q23 0 45.5 -10t31.5 -17.5t34.5 -31t28.5 -25.5q0 -2 26 -37q2 6 12.5 24.5t14.5 27.5q16 33 37 59q-57 4 -99 29q-45 16 -65 26q-8 -6 -24.5 -15t-24.5 -15q-23 -14 -53 -14q-5 1 -10 1q-36 2 -60 23l-8 12q-8 12 -19 21 q-12 21 -12 43q0 15 5 29q13 36 52 53q-12 20 -16 30q-33 14 -45 50q-6 16 -6 33q0 19 8 38v8h-10q-2 2 -12.5 10.5t-14.5 13.5t-13.5 15t-13.5 18.5t-8 21.5t-4 26q0 76 76 121q38 31 80 31q6 0 12 -1q4 6 12 15q-6 21 -6 42q0 41 23 81q14 35 50 47q13 4 26 4q22 0 44 -13 q33 -18 46 -53q86 29 192 29h4h14q193 0 332 -96q8 4 21 8q14 6 27.5 6t21.5 -2t18.5 -9t14.5 -11.5t12 -15.5t10 -13q27 -34 27 -72q0 -28 -15 -59q25 -61 25 -135v-84h-82l-8 -50q43 -14 49 -53q0 -33 -6 -47v-16q0 -92 -21 -125q55 -78 66 -168q2 -6 2 -19v-8v-10 q0 -94 -53 -182q-4 -18 2 -29q8 -24 8 -43q0 -16 -6 -27q-12 -33 -43 -45l-10 -4q-23 -6 -52 4q-16 6 -28 19q-125 -74 -293 -74h-4h-15h-10q-184 4 -319 94q-135 92 -158 242q-20 -4 -29 -4q-31 0 -50 19.5t-19 47.5zM332 389q6 -109 103 -166t224 -57q41 0 80 6 q-23 31 -55 104q-20 47 -22 52q-35 24 -35 74v10q10 31 36.5 51t59.5 14l18 -6q-14 12 -36 35q-10 4 -35 35q-2 -2 -47 -70q-2 -2 -15.5 -22.5t-17.5 -25.5t-15.5 -21.5t-18.5 -21.5t-19.5 -15.5t-23.5 -13.5t-24 -5q-20 -2 -37.5 2t-34 15.5t-26.5 19.5t-26.5 24.5 l-20.5 20.5l-12 12v-41v-10zM446 958q33 -10 60 -40q27 84 106 102q19 8 40 8q19 0 39 -7q42 -15 59 -54q10 -23 10 -43q0 -41 -43 -68l10 -22l4 -9q16 -29 21 -65q29 -2 67 -10q13 4 28 4q47 0 111 -43l9 -4q-8 0 0 41q0 20 8 34q-6 23 -6 33v25l8 41l-31 73v11q2 35 25 75 q-12 27 -35 54q-62 -37 -101 -37q-16 0 -28 6q-29 10 -55 67v25l2 31q-41 8 -95 8q-43 0 -98 -10q6 -10 10 -33q2 -12 2 -24q0 -59 -57 -117q-33 -33 -70 -52zM770 453q10 -10 20.5 -24.5t15.5 -25t15 -34t13 -29.5q4 -8 16 -37q4 0 7 3t3 5l2 4q70 80 125 82 q-10 86 -86 140q-10 -68 -65 -88q-12 -4 -26 -4q-18 0 -40 8z" />
<glyph unicode="T" d="M145 839.5q0 20.5 27 39.5v481h164q42 49 100 49q23 0 49 -8q41 -14 72 -41h602v-483h-166v43q-8 8 -10 12v-10q-4 -25 -20 -41l2 -7q12 -22 11.5 -48t-11.5 -56q-9 -34 -55 -62q-38 -24 -93 -23q-12 0 -24 1q-6 2 -22.5 5t-22.5 5v-139q25 10 45 10q33 0 53 -28 q42 25 72 37q16 6 41 6q21 0 51 -4q62 -10 118 -66q69 -67 69 -133q0 -54 -46 -107q0 -10 29 -24q33 -33 33 -66q0 -28 -23 -55q-31 -35 -72 -35q-8 0 -16 3t-17.5 8.5t-15.5 7.5q-68 55 -87 109q-12 34 -12 60q0 15 4 26q11 32 40 71q0 2 -4 6t-4 10q-18 16 -37 17l-33 -17 q-53 -33 -98 -33q-57 0 -90 31v-22q51 0 86 -27q28 -41 28 -60q0 -29 -22 -57q-12 -29 -64 -69q-2 -4 -28 -31v-125h-166v190q-12 -4 -41 -8q-21 -3 -39 -3q-75 0 -117 52q-22 24 -22 52q0 37 40 79q35 39 74 64l-4 2q-49 -25 -90 -31q-30 -8 -55 -8q-10 0 -20 1 q-32 5 -48 14.5t-20 19.5q-20 20 -15.5 42.5t31.5 39.5q22 17 44 17q24 0 46 -21q6 4 35 17t37 18q-8 12 -99 118q-26 52 -26 105q0 20 4 39q-8 0 -21 4h-6q0 -6 -4 -15.5t-4 -13.5q-6 -25 -41 -24q-2 0 -7 2t-11 2q-16 4 -22.5 18t-0.5 27v4h-4q-31 16 -31 36.5zM338 913 q6 -2 18 -10q68 49 91.5 57.5t82.5 8.5l-4 8q-10 23 -10 59q-45 53 -45 158h-55q-2 -6 -8 -18q-12 -88 -70 -115v-148zM518 760q1 -17 64 -74v72q-30 8 -46 8q-14 0 -18 -6zM520 297q8 2 62 20v31q-52 -41 -62 -51zM748 1034q14 -10 67 -35q49 -24 72 -36l-2 4q-8 20 0 39 q14 47 61 57q23 8 47 8v123h-245v-160z" />
<glyph unicode="U" d="M111 553q-4 15 -4 30q0 25 11 49q17 38 56 52v434l-8 4q-38 21 -38 84q0 18 3 39q6 4 6 27q-9 14 -9 30.5t9 34.5q18 27 44 27q10 0 20 -4h139v-70q18 -12 31 -63q22 17 44 17q18 0 36 -11q10 -6 16 -14.5t9 -15.5t5 -21.5t2 -19.5v-23.5v-20.5q-6 -10 -6 -28 q12 -27 6 -48q-18 -38 -55 -38h-2h-8l-8 4q-33 14 -48 63q-8 -8 -22 -12v-395q33 12 45 16q83 30 138 30q35 0 59 -12q29 -8 43 -24.5t30 -48.5q5 -18 9 -44q1 -4 1 -9q1 -24 -15 -57q-18 -40 -58 -73q-74 -45 -117 -55q-12 -8 -50 -27.5t-54 -29.5q2 -4 10 -18.5t14 -20.5 q8 0 24.5 1t22.5 1q23 2 43 2q111 0 154 -55q0 -4 6 -16.5t10 -27t4 -30.5h7q135 0 231 80t96 229v551q-39 8 -49 4t-35 -33v-16l6 -6q37 -47 53 -88q8 -22 8 -53q0 -27 -6 -61q-14 -73 -73 -167q-31 -35 -72 -44q-11 -2 -21 -2q-28 0 -50 18q-38 24 -46 66l-2 16 q0 32 25 61q43 70 43 100q-6 8 -14 15q-55 72 -60 125v5q0 61 43 130q6 20 25 45l10 10q77 87 195 87q10 0 20 -1v123h166v-107q37 -12 57 -49q14 -26 13 -55q0 -12 -2 -25q-27 -59 -68 -84v-1040h-166v111q-135 -111 -327 -111h-11q-156 4 -274 82q-16 0 -52 1t-53 3 q-127 45 -151 174q14 90 22.5 118t28.5 50q0 10 -2 16v11v18q-33 25 -63 80z" />
<glyph unicode="V" d="M166 276q0 88 53 109q31 16 57.5 -2t63.5 -64q4 -6 6 -8q6 -8 12 -18v10q43 102 62 127l-227 510q-20 25 -21 51v369h166v-135q31 -39 70 -205q51 -211 94 -272q41 -59 186 -117q92 -47 111 -58l73 164q-2 -4 -6 -11t-6 -11q-28 -35 -70 -43q-11 -2 -22 -2q-28 0 -49 16 q-39 25 -47 67q-2 9 -2 17q0 32 24 59q10 21 10 52q0 26 -7 58q-15 71 -24 127q-2 10 -2 20q0 50 36 118q109 135 253 135q16 0 33 -2v23h80q19 4 34 4h9q2 0 6 -2t6 -2h31v-21q34 -34 34 -79q0 -13 -3 -27q-14 -33 -29 -51v-191q0 -27 -20 -51l-219 -487q20 -38 20 -82.5 t-20 -96.5q-18 -31 -17 -34q20 6 45 10q51 19 87 19q42 0 65 -25q16 -20 16 -40q0 -29 -33 -57q-18 -8 -30 -8h-6q-6 0 -52.5 -11t-76.5 -15q-11 -1 -24 -1q-22 0 -48 4q-41 7 -66 29l-34 -79q-2 -10 -15 -31l-2 -4q-16 -18 -43 -29h-6q-4 -2 -14 -2h-2h-4h2h-7h-2 q-33 6 -55 31l-2 6q-10 12 -12 26l-94 207q-4 -14 -13 -34q-35 -115 -86 -136q-18 -10 -40.5 -2t-40.5 29q-12 -39 -38 -78q-14 -6 -32 -6q-47 0 -62 33q-14 22 -14 45t14 47q0 4 -4 21.5t-4 19.5q0 14 -3 34.5t-3 32.5zM549 537l82 -181q2 -2 5 -6t5 -6q29 -11 41 -29 l55 123q-33 31 -125 70q-4 2 -63 29zM899 793l96 213v120q-10 0 -22 4q-37 -14 -42 -60t-6 -128.5t-26 -148.5z" />
<glyph unicode="W" d="M86 1138q8 34 31 52q33 27 55 29v59h-2v82h166v-10q28 17 52 17q22 0 40 -15q10 -6 19.5 -16.5t14.5 -18.5t13 -22.5t10 -18.5l4 -8q41 0 56 -60q10 -33 -1.5 -61.5t-39.5 -42.5q-17 -9 -33 -9q-36 0 -70 44q8 -16 9 -41q0 -74 -68 -129h-2l141 -568l45 170 q-31 23 -57 66q-6 10 -18 29q-41 14 -41 59q0 66 65 66q41 0 92 -64l15 53v76h120q2 0 8.5 2t8.5 4q14 5 30 5q52 0 130 -48q6 -12 28 -20q6 10 6 39q2 6 5.5 22.5t5.5 23.5t6 21.5t8 22.5t11 18t16.5 17.5t19.5 11.5l6 4v2v12v285h-2v82h166v-64q2 -6 2 -18v-246 q4 -18 0 -28q2 -2 2 -11q4 -8 9.5 -26.5t7.5 -22.5q8 -12 16 -30.5t12 -22.5q4 -20 4 -36q0 -45 -32 -64q-16 -16 -38 -16q-15 0 -32 7l-172 -692q0 -4 1 -9q0 -45 -40 -71q-25 -10 -33 -10h-10h-10q-12 2 -33 10q-41 23 -41 70v8l-102 383l-105 -383q0 -4 1 -8 q0 -47 -42 -70q-20 -10 -33 -10h-10h-10q-14 2 -33 10q-39 27 -39 70v8l-51 207q-14 -10 -35 -31q-75 -60 -129 -60q-18 0 -35 7l-6 2q-41 25 -41 71q0 14 4 29q25 53 74 58l45 32q49 41 82 58l-121 489q-16 27 -10 58v28q-20 -12 -44 -4t-38 39q-7 20 -7 40q0 14 3 27z M758 737l90 -338l65 260q-47 2 -108 52q-8 4 -18.5 10t-17.5 11t-11 5z" />
<glyph unicode="X" d="M115 682v5q0 61 43 130q6 18 24 45l11 10q80 86 196 86h10l-24 41q-35 12 -94 48q-6 6 -24.5 16t-23.5 12h-4q-44 0 -75 43q-12 27 -3 61.5t37 51.5q12 6 37 10l-73 119h194l64 -103q18 68 71 89q15 5 30 5l44 -11q37 -18 51.5 -35t44.5 -60q16 -29 27 -35q35 -20 43 -53 q12 -33 -6 -59q-18 -35 -51 -37q-12 -4 -25 -4q-43 0 -82 45q-12 -37 -20 -53l34 -58q80 57 103.5 66.5t85.5 9.5q-14 22 -14 56t14 79q22 38 66 52q15 5 31 5q28 0 56 -16l5 -2l73 119h189l-156 -254q4 -2 11 -5t9 -3q131 -63 150 -127q12 -20 12 -46t-12 -57 q-10 -34 -55 -62q-37 -24 -93 -23q-12 0 -24 1q-92 20 -123 41l-19.5 6.5l-19.5 6.5l-39 -64q92 -83 92 -159v-9q-4 -4 -11 -21.5t-17.5 -33.5t-26.5 -27l322 -524h-189l-323 524l-322 -524h-194l419 680l-39 63q-4 -2 -11 -4t-11 -2q-15 -1 -28 -1q-34 0 -60 7q-24 6 -44 6 q-12 0 -22 -2q-26 -6 -30 -20t4 -31q37 -47 52 -87q8 -21 8 -50q0 -27 -7 -63q-14 -74 -74 -168q-29 -36 -71 -44q-11 -2 -21 -2q-28 0 -49 17q-39 25 -46 67q-1 8 -1 16q0 32 22 60q45 70 45 101l-14 14q-55 72 -59 125zM512 106q0 31 35 46q29 16 55 10q-18 25 2 51 q11 21 33 21q12 0 27 -7q33 -12 22 -37q10 0 10 -4q43 -18 47 -45q8 -27 -26 -51q-24 -23 -54 -23q-11 0 -22 3h-4l-10 -27q-6 -25 -41 -25l-6 2l-13 3q-14 4 -20 17t0 26v4h-4q-31 18 -31 36zM1008 475q0 33 32 43q11 4 20 4q25 0 38 -28h4q33 14 55 6q47 -14 57 -64 q7 -20 7 -37t-7 -32q-20 -47 -52.5 -72t-59.5 -27q-4 -1 -8 -1q-12 -1 -24 9q-16 12 -21 33q-2 12 -2 22q0 46 36 68h-10q-43 8 -61 62q0 4 -2 8t-2 6z" />
<glyph unicode="Y" d="M131 1147q10 47 41 59v154h166v-49q82 -35 82 -142v-16q2 0 7 -2t14.5 -5t21.5 -5q44 -14 44 -67q0 -6 -1 -13q-4 -29 -19.5 -47.5t-33.5 -18.5h-7q-78 14 -108 62v-113l276 -201q31 129 108 172t193 43q16 10 17 21q3 6 3 13q0 26 -44 55q-66 10 -127 55q-43 31 -43 78 q0 20 8 43q10 43 54 63q31 15 71 15q17 0 37 -3q78 -16 102 -65v127h166v-227q49 -58 49 -130q0 -30 -8 -63q-41 -123 -153 -158l-299 -217v-92q35 -35 43 -78q2 -12 2 -23q0 -54 -45 -104v-268h-166v195l-9 2h-8q0 -8 -18 -74q-8 -29 -33 -47.5t-53 -18.5q-2 0 -14.5 4.5 t-22.5 4.5q-33 14 -48 51q-6 17 -6 33q0 20 9 38v9h-10q-2 2 -12.5 10t-14.5 13t-13.5 15.5t-13.5 18.5t-8 21.5t-4 25.5q0 76 76 121q41 32 86 32q13 0 27 -3q-15 34 -15 65q0 39 23 74q6 16 14 24l-297 215q-45 18 -45 74v158q-42 9 -42 66q0 9 1 20z" />
<glyph unicode="Z" d="M150 643q0 27 19 46.5t46 25.5q16 23 21 33q72 83 129 83q20 0 38 -10q52 -32 52 -95q0 -17 -4 -36l6 2q49 72 150 72h16l47 67q-2 4 -4 13.5t-4 13.5q-20 -17 -46 -17q-15 0 -32 5q-35 20 -35 76q-30 -20 -55 -20q-15 0 -29 7q-38 19 -38 82q0 18 3 39q6 6 6 29 q-9 14 -9 29.5t9 33.5q16 29 42 29q16 0 36 -12q35 -14 35 -62q27 13 48 13q18 0 32 -9q27 -10 37 -55q2 6 6 14q16 38 49 52q15 6 30 7q18 0 35 -9q20 -8 39 -33l95 137h-582v-299h-166v465h895h16h74v-74q4 -31 -14 -55l-205 -299q2 -2 7 -5t7 -3l39 -19.5t44.5 -22 t39 -22.5t37.5 -31q42 -37 58 -79q15 -38 14 -68v-7q-2 -32 -15 -57q-47 -116 -190 -116h-2q-88 10 -184 45q-74 23 -101 28l-47 -69q16 -10 58 -29.5t63 -32.5q104 -55 154 -102q53 -45 71 -100v223h166v-465h-985v74q-4 31 14 55l224 326q-35 -20 -63 -20q-36 0 -60 34 q-33 23 -33 78q-10 -10 -39 -10q-33 7 -53 37q-14 22 -14 49q0 10 2 20zM412 166h403q-2 10 2 35q-29 31 -141 78q-12 8 -37 22t-44.5 26.5t-35.5 24.5q-10 -25 -43 -35zM799 731q14 -4 39 -12q16 -4 53 -13.5t63 -14.5q19 -4 32 -4q5 0 9 1q-14 31 -127 76q-6 4 -17 9 t-17 7z" />
<glyph unicode="[" d="M322 -184v1691h686v-166h-521v-1359h521v-166h-686z" />
<glyph unicode="\" d="M188 1360h203l752 -1360h-203z" />
<glyph unicode="]" d="M324 -18h520v1359h-520v166h686v-1691h-686v166z" />
<glyph unicode="_" d="M172 0v166h985v-166h-985z" />
<glyph unicode="a" d="M70 401q-7 20 -7 38q0 20 9 40q29 41 84 60q23 35 34 51t47.5 48t79.5 46q111 74 304 80q-18 26 -18 55q0 15 5 31q25 45 64 61h-174q1 -6 1 -13q0 -37 -48 -77q-55 -41 -107 -41q-16 0 -31 4h-8q0 -10 -16 -51q-14 -43 -74 -43q-2 0 -12 4t-21 4q-29 8 -40 33t1 49v4h-8 q-2 2 -9 7.5t-12 8.5t-12.5 10t-11.5 12t-7 14.5t-3 17.5q0 53 63 80q34 21 76 21q11 0 23 -1q-13 22 -13 43q0 26 19 50q21 35 60 35q14 0 30 -5h399h11q106 -4 182 -41q66 27 122 27q34 0 64 -10q46 -19 64 -59q8 -18 8 -38q0 -23 -12 -49q-23 -37 -66 -57 q47 -104 47 -246v-2v-33q53 -58 53 -118q0 -53 -43 -107q0 -12 27 -25q35 -35 35 -68q0 -27 -23 -52l-16 -17v-4q2 -2 3 -19.5t1 -21.5q28 -25 28 -64q0 -13 -3 -26q-9 -35 -50 -45q-11 -4 -22 -4l-14 2h-142v20q-29 8 -49 31q-113 -51 -276 -51h-11h-10q-178 0 -293 59 q-29 -39 -69 -47h-9q-29 0 -51 20.5t-30 49.5q-1 9 -1 18q0 44 35 68v2q-45 70 -53 160q-33 4 -49 10q-39 20 -55 61zM338 358q29 16 49 19q33 0 58.5 -21.5t29.5 -58.5q0 -74 -47 -86l-4 -6q72 -39 221 -39h10h11h16q10 14 25 24q0 2 4 14.5t6 20.5q2 14 10 33 q-96 14 -188.5 74.5t-137.5 95.5q-26 20 -41 20q-11 0 -16 -10l-2 -4q-4 -33 -4 -53v-23zM338 381q0 129 72.5 173t210.5 44q18 -33 28 -90v-21q20 -16 105 -28l14 -2l-6 6q-20 25 -29 43q-16 26 -16 51q0 20 10 39q-18 2 -61 2h-11zM819 434q30 -25 30 -67q0 -7 -1 -15 q45 -10 102 -82l2 4q20 41 21 107q0 51 -12 88l-11 -4q-53 -33 -96 -33q-23 0 -35 2zM860 741q66 -16 125 -51v6q-10 55 -31 99q-2 0 -6 -4.5t-6 -4.5q-53 -33 -82 -45z" />
<glyph unicode="b" d="M172 0v1475h166v-508q100 82 237 104q6 20 25 39q26 20 48 20q24 0 44 -24q14 -14 17 -31q186 -14 317 -139t131 -330v-149v-13q-6 -88 -37 -161q-4 -43 -43 -88q0 -14 27 -27q35 -35 35 -68q0 -27 -23 -53q-35 -35 -74 -35l-10 2q-8 2 -20.5 8.5t-18.5 8.5 q-29 25 -47 47q-127 -78 -282 -78h-11q-182 4 -315 111v-111h-166zM338 475q0 -150 96 -229.5t230 -79.5q166 0 260 108q2 4 7 11.5t7 11.5l-6 16q-18 16 -37 17q-18 -6 -35 -17q-51 -32 -93 -32h-3q-88 0 -121 75q-15 25 -15 51q0 8 1 16q6 34 37 52q29 12 51 12 q34 0 53 -28q73 43 137 43q45 0 84 -21v121q0 100 -54 177t-144 110q31 -45 38 -68q18 -41 18 -75q0 -52 -42 -89q-38 -34 -85 -34q-36 0 -77 20q-55 39 -106 90q-48 36 -65 36q-6 0 -8 -3q-12 -12 -2.5 -40t25.5 -52q47 -61 74 -119q19 -44 18 -79q0 -49 -36 -81 q-5 -10 -23 -16l-10 -2q-6 -1 -12 -1q-26 0 -47 21q-16 16 -16.5 44t16.5 51q-8 31 -72 98q-6 8 -39 63q-4 -33 -4 -51v-127zM553 895q12 -10 32.5 -28.5t32.5 -28.5q83 -72 95 -74q0 18 -60 94q-2 2 -16 21.5t-23 29.5q-41 -8 -61 -14z" />
<glyph unicode="c" d="M136 522q7 32 34 51v33v4q2 217 148.5 342t343.5 125q154 0 280 -78q18 25 93 25h22h22q25 0 39 -12q23 -14 23 -39q0 -11 -4 -23l-4 -4q-16 -30 -65 -30q-12 0 -26 2l-4 2q117 -127 117 -318h-166q0 78 -31 139q-4 0 -15 -3t-17 -5q-4 0 -18.5 -1t-20.5 -3q-4 -29 5 -59 q0 -76 -7 -88q-11 -32 -38 -32q-12 0 -28 7q-25 16 -25 37q0 9 5 18q-2 2 -8 43q-4 38 -4 67q0 53 14 75q23 23 86 37q-93 77 -222 77h-3q-88 0 -166 -37.5t-119 -109.5q68 -10 98 -53q27 82 107 102q21 10 42 10q20 0 38 -8q40 -16 57 -55q9 -23 9 -43q0 -41 -40 -68l8 -22 q30 -51 30 -95q0 -37 -21 -69q-39 -63 -150 -72h-14q-122 0 -168 68l-8 6q-4 -4 -15.5 -12.5t-13.5 -10.5q8 -248 295 -272q16 10 37 10q4 4 45 33q88 78 157 78q22 0 41 -8q27 -16 39 -47q5 -15 5 -30q0 -18 -7 -38l-2 -2h209v-166h-455q-246 0 -391 123q-129 115 -139 309 l-25 29q-11 20 -11 42q0 9 2 19z" />
<glyph unicode="d" d="M174 487v119v4q2 205 133 328t314 137q60 91 149 91q28 0 59 -9q131 -41 154 -182q2 0 6 -3t6 -5v508h166v-871q12 -8 19 -22q8 -16 8 -31q0 -24 -21 -45q-2 -10 -6 -35v-471h-166v113q-139 -113 -325 -113h-11q-106 4 -196 39q-16 -8 -33 -8h-10q-23 2 -45 24 q-20 20 -25 47q-29 20 -59 56q-37 4 -55 20q-53 39 -54 189v12q0 2 -3 22.5t-3 30.5q-7 13 -7 28q0 12 5 27zM340 475q0 -70 27 -133q49 24 88 24t67 -24q33 -27 33 -74q0 -35 -18 -80q60 -22 127 -22h6q117 0 207 62.5t112 179.5l-2 8q6 0 2 -6l-8 -4q-4 -4 -14.5 -15.5 t-16.5 -17.5t-16 -16.5t-18.5 -15.5t-20.5 -12t-22.5 -9.5t-23.5 -2.5t-26 5q-68 14 -102 112q-6 6 -16.5 24.5t-16.5 22.5q-27 0 -94 -43q-72 -38 -109 -38q-11 0 -18 3q-8 -2 -21 7q-51 29 -55 129q0 25 -2 32q-15 17 -15 38q0 16 9 34q22 37 53 37q17 0 37 -12 q12 -6 20.5 -15.5t13.5 -25t7 -21.5t6 -27.5t4 -23.5l4 -4q-4 4 4 4q0 2 7 2q95 54 156 54q14 0 26 -3q61 -12 115 -119q2 -8 16 -32q16 12 22 32q8 8 22.5 23.5t24 24t21.5 18.5t25.5 14t27.5 2v31q0 23 -2 33q-102 27 -139 90t-39 156q-33 16 -67 22q-10 -20 -15 -24 q-8 -57 -48 -113q-28 -40 -69 -40q-18 0 -38 7q-40 10 -58 50q-14 30 -13 68q0 12 1 26q-168 -76 -168 -275v-127z" />
<glyph unicode="e" d="M131 994q6 34 37 53q27 12 49 12q34 0 55 -29q29 16 43.5 23.5t46.5 17.5q20 6 41 6q12 0 25 -2q33 -6 68 -24q77 26 165 26h7q195 0 327 -112q57 33 152 45q33 0 58.5 -19.5t25.5 -46.5q6 -35 -14.5 -59.5t-55.5 -24.5q-43 -6 -63 -12q61 -102 63 -232q12 -10 43 -67 l4 -6q41 0 56 -62q6 -19 6 -34q0 -44 -47 -68q-19 -11 -36 -11q-23 0 -42 19l-17 2v-18q0 -76 -69 -129q-37 -25 -70 -25q-20 0 -41 16q-39 27 -51 78h-4q-20 -14 -45 -6t-39 39q-8 18 -8 43h-455q16 -92 84 -145q29 98 215 120q35 0 59.5 -19t24.5 -46q6 -35 -14.5 -59.5 t-55.5 -24.5q-39 -4 -79 -20v-17q51 -10 127 -10h454v-166h-454h-13q-137 2 -241 43l-13 -2q-16 -8 -41 -8q-115 0 -188 121q-37 10 -64 43q-12 29 -0.5 59.5t41.5 46.5l9 2q-23 74 -23 150v8v8v2v133v4q2 137 68 244q-68 8 -97 74q-15 25 -15 51q0 7 1 15zM340 553h649 l6 12v37v10q-4 47 -14 84q-10 -4 -39 -8q-16 -8 -41 -8h-14q-49 4 -90 30.5t-52.5 42t-31.5 48.5q-41 10 -64 43q-5 15 -5 29q0 19 9 38q-6 0 -17 -1t-18 -1q5 -18 5 -36q0 -53 -43 -107q0 -12 26 -27q34 -34 34 -67q0 -28 -24 -54q-30 -34 -71 -34l-10 2q-8 2 -20.5 8 t-18.5 8q-99 83 -99 162q0 16 4 31q-61 -78 -61 -193v-49z" />
<glyph unicode="f" d="M113 0v166h280v250q-25 23 -53 57q-4 4 -16.5 19.5t-23.5 26.5t-21 20q-24 -14 -46 -14q-36 0 -67 38q-34 36 -34 80q0 46 32 78q59 38 106 38q13 0 25 -3l-2 10q-11 36 -11 60q0 27 21 85h-190v166l276 4q2 225 117 346t303 121q190 0 305 -121.5t115 -349.5h-166v2 q-23 -45 -64 -59l-6 -2q-27 -4 -52.5 12.5t-39.5 40.5q-6 18 -6 34q0 32 25 56q2 23 14 56q12 76 37 118q-59 47 -162 47q-254 0 -254 -305h287v-162q12 -20 16 -30q2 -14 1 -19.5t-4 -17.5t-5 -21q-2 -20 -11.5 -38.5t-18.5 -26.5t-22.5 -18.5t-17.5 -14.5q-22 -9 -47 -9 q-64 0 -149 60q-16 8 -25 15v-103q2 -2 4 -5t2 -5q37 -33 72 -104q12 -49 12 -85q0 -25 -6 -43q-14 -44 -43 -63q-35 -20 -41 -22v-199h541v-166h-987zM793 328q0 39 53 67q33 18 65 18l17 -1q-11 17 -11 33q0 21 17 42q10 18 36 25q11 3 21 3q16 0 31 -7q36 -14 36 -40 q0 -7 -3 -15q12 0 12 -7q70 -31 74 -67q2 -7 2 -15q0 -31 -41 -61q-45 -34 -87 -34q-13 0 -26 3h-8q0 -8 -12 -41q-14 -36 -59 -36h-3q-2 0 -10 3t-16 3q-25 8 -35 27.5t0 39.5v4h-6q-2 2 -12.5 9.5t-16.5 12.5t-12 14t-6 20z" />
<glyph unicode="g" d="M88 991q30 20 64 20q6 0 12 -1q70 62 146 62q35 0 71 -13q18 -4 35 -21l10 -5t8 -5q106 49 228 49q25 0 69 -4q78 89 203 89q36 0 76 -7q43 28 85 28q7 0 15 -1q39 -10 60 -48q16 -28 16 -59q0 -12 -2 -24q-14 -33 -29 -50v-800q35 -20 35 -51q0 -37 -35 -56v-100v-4v-6 q0 -211 -139 -332q-145 -123 -391 -123h-82v166h82h10q90 0 170 24q-27 8 -53.5 22.5t-59.5 38t-37 25.5l-8 -6q-20 -9 -51 -9q-45 0 -115 20l-63 12q-8 -8 -15 -12q-33 -28 -69 -28q-23 0 -47 11q-10 6 -37 41q-20 18 -27.5 42t-7.5 49.5v27.5q29 78 170 117l6 2 q-57 33 -94 73q-23 0 -104 15q-68 25 -97 70q-26 41 -26 71v8q12 70 47 94q18 23 55 35q-2 10 -2 35v129q0 164 84 277q-23 -14 -39 -21q-26 -11 -50 -11q-41 0 -75 32q-23 24 -23 55q0 32 21 57zM336 455q37 -4 59 4q4 35 29 53q22 16 54 16h7h12q41 0 71 -24 q34 -29 38 -74q-12 -92 -57 -125l10 -4q47 -23 64.5 -41t58.5 -94q6 0 19.5 1t19.5 3l2 6q12 41 90 74h35l43 -4q25 20 49 57q0 51 -6 62q-57 25 -57 67q0 31 23.5 49.5t57.5 18.5q18 0 31 -4v106q0 109 -59 184q3 -17 3 -36q0 -91 -79 -218q-31 -35 -72 -44q-11 -2 -21 -2 q-28 0 -50 18q-39 25 -47 66q-1 9 -1 16q0 33 25 61q43 68 43 101q-6 8 -14 14q-6 6 -19 22q-29 12 -82 45q-4 2 -49 29h-5q-32 0 -54 23l-2 -2q0 -4 -1 -9.5t-1 -7.5l-8 -14q27 -27 67 -47q33 -12 43 -42t-6 -61q-8 -27 -39 -36t-61 4q-88 45 -127 92q-37 -70 -37 -156 v-129v-12v-6zM647 -31q35 -10 111 -61q8 -4 28.5 -17.5t37 -23.5t24.5 -12q0 31 -60 104l-30 49q-43 -8 -90 -8q-12 -20 -21 -31zM907 57q6 -10 16.5 -26.5t14.5 -22.5q37 -44 49 -67v4q2 12 2 39v6v4v117q-37 -31 -82 -54z" />
<glyph unicode="h" d="M76 1169.5q0 22.5 9 61.5t34 78q4 10 24 47l11 10l14 14v95h166v-25h19l75 -6q38 25 81 25q10 0 19 -1q38 -10 60 -48q16 -28 16 -59q0 -12 -2 -24q-37 -84 -131 -108q-15 -1 -28 -1q-34 0 -60 7q-33 8 -49 8v-121q18 -42 18 -87q0 -30 -8 -62q90 74 223 96q-7 16 -7 40 q0 33 13 81q25 39 68 51q14 4 29 4l57 -16q56 -25 56 -76q0 -13 -3 -27q10 -8 23.5 -16t31 -15.5t23.5 -11.5q129 -59 152 -125q2 -2 4 -8t2 -8q139 -133 139 -340v-293q25 -18 31 -47q2 -13 2 -24q0 -47 -33 -72v-166h-166v256q-2 -4 -8 -19.5t-8 -23.5q-18 -61 -35.5 -93 t-50.5 -44q-18 -10 -42 -2t-38 28q-12 -41 -39 -75q-16 -8 -35 -9q-43 0 -59 33q-10 18 -10 47t10 45q0 6 -4 22.5t-4 18.5q0 14 -3.5 36t-3.5 32q0 88 54 108q10 12 27.5 7t25.5 -7t24.5 -18t24.5 -25.5t25 -29.5q4 -8 12 -19v11q4 8 14.5 32.5t15.5 36.5t15 31.5t19.5 31 t22.5 21.5t28 14q16 4 22 5v151q0 102 -57 182q-36 -14 -84 -14h-12q-96 27 -121 43q-12 2 -57.5 17.5t-61.5 18.5t-35 -5q0 -10 9.5 -21.5t31 -31t23.5 -21.5q102 -88 102 -166v-10q-2 -4 -9 -20.5t-13.5 -27.5t-21.5 -25.5t-36 -20.5q-8 -4 -17 -10.5t-16.5 -8.5t-17.5 -2 q-70 0 -102 64q-2 27 -19.5 57.5t-35 52t-44 51t-33.5 37.5q-28 -59 -28 -134v-5v-231q9 3 17 3q44 0 85 -69q8 -18 15 -20q31 -14 36 -43q2 -27 -6 -46.5t-24 -23.5q-9 -4 -17 -4l-69 57l-4 4q-8 12 -15 19q-12 -37 -14 -41q-2 -2 -3 -7t-1 -7v-193h-166v72q-23 0 -41 24 q-6 10 -6 30.5t6 31.5q0 4 -1 16t-1 14q0 10 -3 24.5t-3 23.5q0 59 39 75q8 4 10 4v459q-23 4 -39 17q-39 25 -46 67q-1 8 -1 15q0 33 24 61q43 70 44 100q-6 8 -15 15q-18 23 -23.5 29.5t-20.5 37.5t-15 53.5zM836 1348q6 6 6 26q-9 14 -9 31t9 35q12 20 34 24q6 1 12 1 q17 0 32 -9q35 -14 34 -63q26 15 48 15q17 0 32 -9q25 -10 41 -70q22 17 44 17q18 0 36 -11q10 -6 16.5 -14t9.5 -15.5t5 -21.5t2 -19v-23.5v-20.5q-6 -12 -6 -29q8 -18 8 -32q0 -7 -2 -13q-21 -41 -58 -41h-8l-8 6q-31 12 -47 62q-20 -16 -46 -16q-15 0 -32 5 q-35 20 -35 76q-30 -19 -55 -19q-15 0 -29 7q-38 19 -38 80q0 19 4 41z" />
<glyph unicode="i" d="M176 -2v166h248q2 20 20 41q43 66 43 98q-6 10 -14 16q-55 72 -59 125v5q0 61 43 131q12 31 26 45l11 10q41 47 92 67v93q-14 0 -23 2h-20q-20 -76 -61.5 -96.5t-67.5 -20.5h-13q-4 0 -10 1t-10 1q4 -12 6 -16v-11q18 4 35.5 -6t19.5 -33q4 -16 -8 -31.5t-35 -19.5 q-13 -3 -24 -3q-43 0 -66 36v-8q-8 -43 -61 -62q-2 0 -6 -2t-9 -2q-33 0 -40 33q-6 12 -6 22q0 22 28 35v2q-10 43 -4 58q10 47 61 57l13 4q-14 25 -2 47q6 33 34.5 47.5t57.5 1.5h22q18 57 37 78h-174v125q-6 2 -18 10l-21 27q-14 29 -5 57.5t38 42.5l4 7l-4 6q-7 27 -7 47 q0 32 17 51q29 37 86 37q13 0 27 -2q55 -6 86 -45q20 66 74 80v121h266v-267h-178q21 -42 21 -77q0 -30 -15 -54h121v-360q4 0 8 -1t6 -1q42 27 83 27q9 0 17 -1q38 -10 60 -48q16 -28 16 -59q0 -12 -2 -24q-37 -88 -131 -108q-18 -2 -57 2v-338h116q-4 16 -4 35t4 41 q6 6 6 26q-9 14 -9 31t9 35q12 20 35 24t43 -8q35 -14 35 -63q26 15 48 15q17 0 32 -9q25 -10 41 -70q22 17 44 17q18 0 36 -11q33 -20 33 -114q-6 -12 -7 -29q8 -16 8 -32q0 -7 -1 -13q-20 -41 -58 -41h-987zM803 883q0 88 90 123q23 10 104 16q12 4 47 8t41 6 q6 31 24.5 54.5t43.5 23.5q27 0 47.5 -21.5t20.5 -56.5v-6q0 -109 -88 -139q-23 -10 -68 -17.5t-55 -9.5q-59 0 -72 -6q-21 -57 -66 -57q-33 0 -51 22.5t-18 59.5z" />
<glyph unicode="j" d="M174 551q0 67 64 67h2q14 0 25 -4t22.5 -13t17.5 -15t18.5 -21.5t16.5 -19.5h6q74 127 137 145q15 5 32 5q54 0 128 -50q4 -6 29 -20q6 12 6 39q2 6 5 22t5 23.5t6 21.5t8.5 22.5t11.5 18.5t16 17.5t20 13.5q8 4 12 4v104h-410v166h191l-2 2q-8 18 -9 45l-6 11 q-6 8 -33.5 38.5t-41.5 49.5q-20 38 -20 76q0 44 28 87q59 45 76.5 52.5t58.5 7.5q-9 16 -9 40t9 54q16 29 45 38q10 3 21 3q19 0 38 -10q40 -16 40 -52q0 -10 -3 -22q8 -8 37 -22h205v-267h-266v56q-10 4 -21 10q-8 2 -38.5 13t-41 12t-24.5 -3q0 -10 43 -53 q70 -60 70 -117q0 -5 -1 -10q-2 -2 -4 -9t-6 -15.5t-8 -14.5h248v-270q2 -4 5 -12.5t5 -14.5t2 -10q8 -12 16.5 -30.5t12.5 -22.5q4 -19 4 -35q0 -44 -33 -64q-4 -4 -12 -8v-252q29 16 55 11q-14 25 4 51q15 20 36 20q11 0 24 -6q31 -12 20 -37q10 0 10 -4q43 -18 47 -45 q2 -5 2 -10q0 -20 -26 -41q-29 -24 -56 -24q-10 0 -20 3h-6q0 -6 -4 -14t-4 -12q-6 -25 -41 -25l-6 2l-13 2q-16 4 -22 17v-252v-4v-6q0 -164 -90 -277q-12 -20 -13 -31q0 -43 -22 -65q-25 -25 -58 -25h-12q-14 2 -28 11q-129 -68 -308 -68h-176v166h176q111 0 185 26 q-25 8 -39 21q-27 18 -40.5 54t-15.5 63.5t-2 77.5v57q-13 20 -13 42t13 48q18 27 51 34q10 2 20 2q22 0 44 -11q14 -10 23.5 -23.5t14.5 -24t7 -31t2 -28.5v-33.5v-31.5v-39l17 6q61 31 96 33q2 14 2 47v6v4v524q-20 -23 -47 -26q-14 -5 -29 -5q-52 0 -117 52 q-8 2 -26.5 13t-24.5 11q-25 -14 -61 -84q-51 -86 -92 -94q-6 -6 -19 -6q-57 0 -113 86q-2 4 -9 14t-9 13q-41 14 -41 59z" />
<glyph unicode="k" d="M133 270q0 45 37 64v938q-37 23 -37 51q0 37 37 57v95h166v-138q10 -12 20 -37q10 -23 17.5 -66.5t9.5 -53.5q0 -59 4 -72q57 -20 57 -66q0 -69 -77 -69h-2q-16 0 -29 4v-469l346 346q-12 0 -25 4q-80 2 -100 88q0 59 6 88q-4 23 4 45q-36 20 -36 55q0 5 1 11 q10 29 36 44t53 7q90 -8 90 -101v-8q23 45 41 71t58 48q34 19 76 20q7 0 15 -1h5q27 -1 61 -21q37 -22 51 -76q6 -27 6 -51h121l-125 -125q4 -33 10 -41q25 -4 42.5 -23.5t12.5 -43.5q-14 -49 -59 -62l-10 -2l-12 2q-74 6 -103 54l-256 -254l39 -43q2 0 5 1t5 1q17 7 35 7 q44 0 96 -40q0 86 49 110q14 6 32 6q45 0 112 -42q0 -4 8 -4v40q0 59 61 84q27 4 53.5 -13t30.5 -44q0 -33 -6 -47v-16v-16.5v-18.5t-1 -18.5t-2 -20.5t-4 -18.5t-7 -19.5t-10 -16.5t-14.5 -16.5t-18.5 -13q-17 -8 -38 -8q-45 0 -105 37q0 -109 -70 -134q-2 0 -6 -2t-6 -2 l282 -315h-221l-57 63q-14 -47 -60 -59q-14 -4 -22 0q-104 12 -119 96q-11 49 -11 97q0 14 1 28q3 33 3 54q0 11 -1 18l-8 10q-12 -12 -39 -80q-14 -29 -43 -94q-44 -58 -96 -58q-16 0 -33 5q-80 6 -101 88q0 59 7 88q-2 14 2 47h-2l-29 -29v-274h-166v209q-37 20 -37 61z M483 420q16 -16 25 -23q4 -10 12 -20.5t12 -16.5q20 35 29 52l6 10l-39 43zM825 997l54 52q0 20 -5 41q-18 -10 -45 -84z" />
<glyph unicode="l" d="M70 1326q6 34 34 52q33 12 62 11v86h575v-398l17 -2l35 -26q7 -15 7 -29q0 -36 -50 -57h-9v-15q8 -37 60 -108q49 -55 67 -117q4 -31 9.5 -44t-8 -33.5t-17.5 -26t-21.5 -19.5t-21.5 -18q-33 -27 -68 -33v-227q20 -12 31 -54q4 -15 4 -28q0 -39 -35 -66v-8h412v-166h-987 v166l145 -2q-1 8 -1 15q0 46 32 73q35 27 66 27q25 0 47 -17q27 -23 32 -35v52q0 80 56 118q6 8 32 23v176q-12 8 -30.5 21.5t-26.5 17.5l-10 -6q-19 -9 -51 -9q-45 0 -115 19l-90 18q-11 -1 -21 -1q-44 0 -61 28q-18 23 -13 47.5t29 38.5q10 2 22.5 6t21 6t16.5 2h35 q2 0 55 -14q25 23 98 43q66 0 141 -47v168q-4 33 0 47v16q-4 -27 -20 -47q-35 -35 -72 -35q-10 0 -26.5 8.5t-22.5 10.5q-68 56 -87 110q-12 35 -12 59q0 15 4 27q11 32 40 70l-8 17q-18 16 -37 16q-16 -6 -33 -16q-57 -33 -98 -33q-86 0 -119 76q-15 25 -15 51q0 7 1 15z M516 1098l2 -8q6 -10 27 -19q27 -27 30 -63v301h-57q44 -54 44 -106q0 -53 -46 -105zM836 1227v45q-12 14 -12 31t12 36q14 19 38 25q9 2 18 2q16 0 30 -8q10 -8 18 -17.5t11 -17.5t5 -23.5t2 -22.5v-25.5v-24.5v-31l13 6q48 25 84 25q31 0 53 -19q25 -20 27 -50v-12 q1 -22 -5 -35q-8 -17 -22 -50q-12 -29 -12 -33q0 -31 -17 -51q-22 -19 -44.5 -19t-45.5 19q-19 22 -19 50q0 18 7 38q-21 -3 -38 -3q-41 0 -60 17q-43 31 -43 148z" />
<glyph unicode="m" d="M109 244v45q-9 14 -9 31t9 36q23 28 52 28q5 0 11 -1v217v10v8q0 127 10 199h-4q-29 0 -45 25q-8 14 -8 30t8 33q0 4 -2 15.5t-2 13.5q0 10 -2 24.5t-2 22.5q0 61 39 76q20 12 37.5 -0.5t42.5 -42.5q4 -6 6 -8q6 -6 6 -11h2v4q2 6 9 23.5t11.5 26t11.5 22.5t13 21.5 t15.5 14.5t19.5 9q8 3 17 3q35 0 71 -46q6 0 17.5 -1t17.5 -1q16 2 57 2q39 0 62 -26q51 -18 86 -54l18 19q-16 27 -14 61q8 31 34 51q22 17 51 18q5 0 11 -1q51 -10 80 -68q8 -2 24 -2q16 2 58 2q39 0 59 -24q27 12 53 10q35 37 76 43q33 0 57.5 -21.5t30.5 -58.5 q0 -76 -47 -84q-6 -6 -14 -23v-38q0 -2 -1 -7.5t-1 -7.5q8 -31 10 -53q0 -2 1 -8t1 -10q4 -49 4 -78q37 -8 60.5 -32t23.5 -54q2 -11 2 -21q1 -30 -17 -54q-24 -32 -67 -36v-223q27 -23 27 -64v-4v-10q-4 -51 -27 -84v-133h-166v65q-2 -2 -8 -2t-10 -2q-57 0 -72 -6 q-23 -57 -65 -57q-16 0 -29 6h-2q-29 0 -59 12v-16h-166v125q-39 -50 -89 -50q-16 0 -34 5q-39 0 -64 24l-12 -24q-2 -6 -6 -12.5t-6 -10.5t-2 -10q-1 -35 -17 -51q-18 -18 -43 -19h-10q-18 2 -35 19l-4 4h-88v86q-8 2 -18 12q-45 31 -45 148zM338 244q15 0 27 -6v6l2 39 v-13q-12 6 -29 27v-53zM338 629h2q36 25 70 25q15 0 30 -5q-12 33 -12 63q0 42 23 79q14 35 49 48q15 5 28 5q19 0 35 -10q-23 59 -102 71q-80 -10 -101.5 -64t-21.5 -212zM508 356q6 -25 6 -49q29 57 53 84q-23 0 -43 6h-10v-10q0 -6 -1 -11t-3 -10.5t-2 -9.5zM748 526 q14 -4 45.5 19.5t88 65.5t111.5 67q0 12 -1 32.5t-1 30.5q-41 6 -61 45q-24 -10 -46 -10q-14 0 -28 4q-49 10 -84 68q-24 -45 -24 -216v-14v-92zM823 182l8 4q10 8 27 15q20 8 105 14q12 6 30 6v127q-45 -53 -139 -63q-14 -6 -29 -6q0 -10 -1 -26.5t-1 -25.5v-45z" />
<glyph unicode="n" d="M66 162q27 33 65 45q8 12 12 20q-12 18 -12 43q0 45 37 64v268q0 55 8 94q-20 12 -29 19q-33 31 -33 76q0 47 36 81q20 27 51.5 34t60.5 -9q4 2 10 8q8 10 27 29q16 20 25 29q92 109 159 112q11 2 23 2q25 0 49 -12q57 10 107 10q119 0 225 -47q2 2 7 8t7 11q6 2 21 22v6 q0 27 30 49q16 8 30 8q28 0 48 -34q10 -16 10 -33q0 -19 -12 -39q57 -4 72 -35q9 -12 9 -32.5t-9 -49.5q9 2 18 2q35 0 53 -34q4 -8 6.5 -16.5t1.5 -17.5t-2 -16.5t-7.5 -17.5t-8.5 -15.5t-9 -17.5t-9 -14q-8 -8 -10 -12q12 -45 14 -68q20 -16 22 -37q0 -33 -6 -49v-14 q0 -74 -10 -103v-92q41 -14 41 -49q1 -6 1 -12q0 -43 -42 -58v-268h-166v129q-12 -4 -37 -8q-16 -4 -37 -4q-98 0 -157 100q-37 10 -54 37q-5 16 -5 29q0 37 38 61q29 10 56 4q-12 10 -29 27q-20 8 -35 37q-8 -8 -16.5 -20.5t-18.5 -29t-14 -22.5q-55 -88 -90 -109 q-20 -12 -43 -14q-33 -4 -56 8q4 -12 11 -41v-16q18 -14 80 -23q35 0 54 -24.5t15 -59.5q0 -27 -25.5 -46t-60.5 -19q-221 29 -221 166l-6 10h-2v-172h-166v49q-31 -4 -62 8q-47 27 -47 69q0 17 7 36zM352 322l8 -3l25 -4l-18 19q-10 -4 -15 -12zM477 612q10 -2 23.5 4.5 t38 22.5t26.5 16q89 60 154 60q24 0 45 -8q4 -4 17.5 -14.5t22.5 -18.5t18 -26.5t12 -39.5q4 -20 4 -24q10 18 34 32q15 7 34 7q34 0 81 -23v2v12q-4 143 -99 219t-226 76q-20 0 -31 -2q-4 -23 -13 -49q-31 -70 -71 -104q-6 -12 -29.5 -48t-35.5 -60q-8 -15 -8 -25 q0 -5 3 -9zM508 389q2 -6 10 -14.5t12 -14.5q18 27 29 50l-33 -17zM817 510l4 -4v10q-2 0 -2 -2t-2 -4zM850 317q16 -18 27 -36q14 -29 20 -34t31 -5l6 6q-6 0 0 6q2 2 2 8q14 57 51 86v90l-24 13q0 -106 -70 -132q-20 -8 -43 -2z" />
<glyph unicode="o" d="M132 353q0 35 30 63q6 10 12 12q-2 14 -2 45v133v4q0 53 14 119q-37 25 -36 57q0 35 22.5 58.5t48.5 34.5q29 16 51 22q16 20 52 55q4 27 24 54q14 27 51 36q14 3 27 3q22 0 41 -9q92 37 197 37q115 0 221 -47q24 4 50 4q37 0 79 -8q40 28 82 28q8 0 16 -1q42 -10 62 -48 q15 -27 14 -58q0 -12 -2 -25q-25 -66 -82 -93q53 -102 53 -223v-133q0 -29 -4 -74q6 -19 6 -38q0 -54 -47 -109q0 -10 29 -25q34 -34 34 -67q0 -28 -24 -54q-31 -34 -72 -34q-8 0 -16 3t-17.5 8t-15.5 7q-10 10 -31 27q-139 -117 -335 -117q-94 0 -181 31q-2 -2 -10 -6 q-25 -5 -47 -5q-80 0 -133 64q-35 86 -37 111q-14 20 -39 65q-29 8 -57 27q-28 28 -28 66zM338 528q53 53 98 56q8 2 16 2q31 0 68 -25q23 -16 34 -52q5 -16 5 -38q0 -28 -8 -65q-29 -59 -62 -87q-6 -10 -23 -38.5t-24 -40.5q14 -14 29 -23q4 2 17.5 10.5t17.5 12.5 q79 49 131 49q18 0 33 -6q2 -2 13 -11.5t19.5 -17.5t15.5 -22.5t9 -32.5q0 -4 3 -13.5t3 -13.5q141 25 213 135q8 20 15 29q8 16 10 26q-4 4 -4 11q-18 16 -37 16l-33 -16q-53 -33 -98 -33q-76 0 -109 55q-14 16 -20 39q-8 20 -8 38q0 37 36 60q37 59 37 86l-14 15 q-20 25 -29.5 40t-23.5 50q-8 20 -9 43q1 17 5 35q10 43 41 92l6 16q-14 2 -47 2t-50 -2q23 -27 25 -49q4 -12 4 -23q0 -44 -57 -83q-56 -49 -117 -49q-21 0 -43 6h-14v-11q-2 -10 -9.5 -24t-9.5 -21q-6 -37 -55 -47v-6v-74zM877 772q59 -79 59 -158q0 -25 -6 -51 q30 0 61 -8v47q0 135 -90 221q-33 -9 -33 -28q0 -10 9 -23z" />
<glyph unicode="p" d="M92 -184q0 88 53 108q10 8 27 8v779h-2q-45 25 -53 81q-4 25 -4 46q0 27 6 49q8 8 8 41q-11 20 -11 43t11 49q14 25 45 35v22h166v-106q4 2 10 2q135 104 320 104q150 0 272 -73q20 9 37 9q24 0 43 -16q27 -14 55 -77l6 -7q41 0 56 -61q4 -14 4 -28q0 -23 -13 -44 q31 -80 31 -178v-129q0 -25 -4 -74q31 -27 41 -67q4 -19 4 -58q0 -26 -2 -61q-2 -23 -2 -41q0 -42 10 -57q27 -4 44 -23q15 -15 15 -35q0 -5 -1 -10q-14 -49 -60 -61l-10 -2l-12 2q-104 12 -119 96q-10 45 -10 86q-109 -127 -287 -160q-6 -16 -18 -31q-30 -34 -70 -34h-2 l-10 2q-8 2 -21.5 8t-17.5 8q-35 31 -47 45q-139 23 -242 105v-154q29 43 61 51q15 6 29 6q61 0 117 -98q10 -20 22 -33q45 -14 51 -59q2 -12 2 -23q0 -23 -9 -43q-13 -28 -36 -34q-29 -12 -57.5 4t-38.5 30.5t-30 46.5l-21 27l-22 -57q-33 -102 -68 -125v-121h-166v53h-4 q-47 0 -62 33q-14 23 -14 46t14 46q0 4 -4 21.5t-4 19.5q0 14 -3 34.5t-3 33.5zM338 473q0 -20 4 -57h9q34 0 52 -27q43 25 73 37q16 7 42 7q22 0 50 -5q63 -10 118 -66l25 -26v12q10 29 35.5 44.5t52.5 6.5q90 -8 90 -100v-8q45 96 100 123q4 37 4 59v129v12q0 23 -8 64 q-16 -37 -53 -66q-36 -24 -67 -24h-3q-18 0 -43 16q-37 27 -49 78h-6q6 0 0 -2q-2 0 -8 -2q-12 -6 -24 -6q-29 0 -50 43q-9 25 -9 47q0 42 34 74q34 28 64 28q26 0 48 -20q23 -16 33 -35v51v4q-84 47 -184 47q-72 0 -142 -26q25 0 52 -17q10 -6 18 -14t13 -15.5t8.5 -20.5 t5.5 -20t3 -24.5t1 -23v-24.5v-21q-10 -14 -11 -39q13 -25 13 -48q0 -9 -2 -18q-27 -59 -84 -59h-11l-12 6q-43 18 -67 90q-29 -22 -67 -22q-22 0 -48 8v-21v-129zM463 225q41 -27 82 -39q16 29 26 41l-4 6l-4 11q-18 16 -37 16l-32 -16zM743 285zM780 -55q18 18 50 24 q11 2 21 2q21 0 40 -8q14 -8 23.5 -18.5t14.5 -17.5t8 -24.5t3 -20.5v-25v-25v-31l16 4q64 26 110 26q38 0 64 -17q31 -20 34 -51q1 -8 1 -16q0 -19 -6 -31q-8 -15 -29 -52q-2 -4 -6 -10t-7 -11t-3 -10q0 -33 -20 -51q-25 -18 -58 -18q-35 0 -55 18q-27 21 -27 49 q0 18 11 39q-29 -4 -52 -4q-49 0 -77 17q-37 20 -46.5 56t-9.5 93v45q-14 15 -14 32t14 36z" />
<glyph unicode="q" d="M176 473v129q0 113 43 209q-18 8 -39 35q-7 15 -7 33q0 14 4 29q9 34 38 50q19 10 42 10q30 0 67 -18q55 49 135 86q25 27 49 37q17 6 34 6q19 0 38 -8q43 6 88 6q193 0 327 -110v110h166v-925q2 0 5 -4.5t5 -4.5q31 -27 34 -65q1 -11 1 -20q0 -25 -6 -42q-8 -24 -29 -67 q-2 -4 -6 -10.5t-4 -8.5v-401h-166v346q-5 15 -5 32t5 36v12q-26 -4 -48 -4q-51 0 -77 20q-31 23 -41 54q-78 -25 -161 -25h-21q-25 -43 -78 -66q-10 -10 -34 -10h-11q-49 6 -73 53q-7 15 -7 31q0 18 9 37q-125 53 -201 162.5t-76 265.5zM342 461q6 -154 117 -232 q-2 4 -5 11.5t-3 9.5q-39 176 -45 217q-1 11 -1 21q0 128 119 186q27 16 60 24q12 2 25 2q26 0 59 -10q49 -14 90 -61q33 -31 119 -180q70 -115 79 -127q8 12 13 20q-8 43 -39 115q-33 98 -45 164q-1 10 -1 20q0 82 62 131q-70 109 -207 133q4 -8 9 -20q4 -13 4 -24 q0 -21 -13 -38l-6 -10q-12 -20 -43 -27q-12 -3 -23 -3q-45 0 -83 46q-25 -84 -80 -102q-21 -12 -48 -12q-38 0 -87 24q-27 -63 -27 -137v-129v-12zM588 467q0 -20 7 -45t18.5 -60.5t17.5 -56.5q25 -80 33 -139h4q78 0 145 29v12q-45 63 -90 151q-72 152 -117 164v-10v6 l-6 -8q-12 -4 -12 -43z" />
<glyph unicode="r" d="M197 0v1077h165v-110q134 110 323 110h3q104 0 197 -41h10q-14 21 -14 42q0 25 20 50q14 23 45 31q11 3 23 3l39 -9q43 -17 43 -54q0 -7 -2 -16l14 -4q82 -35 88 -82q3 -10 3 -19q0 -37 -50 -75q-14 -10 -43 -26q66 -115 65 -273h-165q0 115 -41 184q-23 -16 -52 -16 q-2 0 -12 4t-20 4q-29 8 -40.5 33t1.5 47v6h-9q-2 2 -13 9.5t-19 15.5t-15 16q-20 4 -34 4q8 -16 8 -33.5t-8 -37.5q-28 -52 -63 -52q-9 0 -19 3q-18 -6 -64 -46q-75 -60 -129 -60q-18 0 -35 7l-6 2l-8 6l-6 5q-14 -53 -15 -103v-602h-165zM541 250q0 84 53 110q15 7 28 7 q16 0 32 -11q28 -20 67 -69q6 -10 14 -19v8q2 4 10.5 25t11.5 28t11 24.5t13 25.5t13.5 21.5t16.5 20.5t18.5 14t20.5 9q14 5 27 5q60 0 118 -99q8 -18 21 -31q45 -16 53 -59q1 -9 1 -17q0 -27 -10 -49q-13 -28 -36 -36q-10 -4 -18.5 -5t-16.5 0t-16 5t-13.5 7t-13.5 10 t-11 11t-10 14.5t-10.5 13.5t-9.5 14.5t-8 13.5q-4 4 -10 13t-10 13q-10 -33 -23 -57q-35 -117 -84 -137q-20 -10 -42.5 -2t-39.5 30q-8 -36 -39 -77q-14 -8 -33 -9q-43 0 -61 33q-10 18 -10 47t10 45q0 6 -3 22.5t-3 18.5q0 14 -4 36t-4 32z" />
<glyph unicode="s" d="M161 968q11 30 40 46q25 9 47 9q44 0 80 -32q12 -12 18 -20q125 106 322 106q131 0 252.5 -60.5t154.5 -174.5q55 -25 74 -88q4 -19 4 -58q0 -26 -2 -61q-2 -23 -2 -41q0 -42 10 -57q27 -5 45 -23q14 -15 14 -34q0 -4 -1 -9q-14 -51 -60 -63q-14 -4 -22 0q6 -31 6 -64 v-14q-6 -139 -99 -219q-2 -6 -2 -13q12 -27 7 -47q-23 -41 -58 -41q-12 0 -16 6q-18 8 -35 31q-115 -47 -272 -47q-53 0 -118 11.5t-153 43t-145 106.5t-57 183h77q-6 16 -26 90q-16 16 -17 43q-57 14 -57 76q-6 33 15.5 59.5t58.5 34.5q10 0 16 -2q-12 37 -12 80v2v39v2 q0 27 6 55q-14 16 -29 41q-41 14 -63 45q-6 15 -6 30t5 29zM383 264q70 -98 283 -98q16 0 32 -2q-7 19 -7 47q0 19 3 41q4 6 4 29q-14 27 0 61q12 20 36 25.5t44 -7.5q35 -16 35 -61q29 13 51 13q16 0 29 -7q25 -14 41 -72q41 45 41 111q0 37 -35 73t-106 36h-242h-8 q-33 0 -64 6q2 -16 2 -30q0 -21 -4 -38q-10 -102 -98 -127h-31h-6zM414 721q4 -16 12 -27q4 0 12 4q29 6 56.5 -12t40.5 -55l2 -6q24 -7 55 -7h96q4 29 6 41q-2 16 2 48q-34 16 -34 48q0 7 2 15q10 29 35.5 44t52.5 7q90 -8 90 -100v-8q31 66 65 98q-29 43 -99.5 71.5 t-139.5 28.5q-37 0 -70 -6l-4 -2v-16l-2 -10q-2 -12 -3 -16.5t-5 -15.5t-7.5 -17.5t-9.5 -16.5t-13 -16.5t-17.5 -14.5t-21.5 -13t-26.5 -9t-33.5 -6q-16 -6 -41 -7v-18v-2v-4zM946 602q33 -10 60 -24v10v41q2 30 2 51.5t-2 34.5q-20 -12 -45 -84q-2 -6 -7.5 -15.5 t-7.5 -13.5z" />
<glyph unicode="t" d="M90 1020q0 74 74 121q40 31 84 31q14 0 28 -3q-14 33 -14 63q0 40 25 77q14 35 50 47q14 4 27 4q22 0 44 -12q31 -18 43 -50v177h165v-398h93q-8 16 -13 37q-2 12 -2 23q0 29 12 53q16 33 46 41q17 6 32 6q32 0 54 -31q32 -45 41 -92q0 -18 30 -27q29 -8 29 13 q0 88 37 143t143 76h6q27 0 47.5 -25.5t24.5 -62.5q1 -7 1 -14q1 -29 -13 -53q-16 -30 -43 -42q-16 -4 -29.5 -8t-20 -7t-8.5 -3v-21q0 -154 -127 -194q-26 -8 -49 -8q-46 0 -82 30h-209v-213q25 -2 46 -6q43 28 85 28q8 0 15 -1q23 -6 39 -23q14 74 86 103q20 10 106 14 q12 4 47 8t41 6q4 31 23.5 54.5t44.5 23.5q27 0 46 -21.5t19 -56.5v-6q0 -106 -88 -139q-23 -10 -66.5 -17.5t-53.5 -9.5q-59 0 -72 -4q-25 -57 -68 -57q-16 0 -28 6q0 -2 -1 -6t-1 -6q-37 -88 -131 -109q-14 -1 -27 -1q-33 0 -60 7h-2v-30q0 -186 30 -237.5t151 -51.5h6h6 q90 0 127 24.5t47 96.5q-29 -8 -49 22q-8 -27 -29 -53q-8 -6 -22 -6q-29 0 -43 24q-8 10 -8.5 32t8.5 32q0 4 -2 15.5t-2 13.5q0 10 -3.5 24.5t-3.5 24.5q0 57 39 73q7 4 14 4q28 0 70 -51l4 -4q4 -4 9 -12v8q25 57 26 60v45h33q12 8 20 10q27 10 56 -10h57v-72l4 -4 q35 -14 37 -43q1 -8 1 -16q0 -45 -32 -54q-2 -2 -6 -2t-6 -2q-6 -178 -75.5 -262t-270.5 -84h-6h-6q-201 0 -277 94q-8 -16 -14 -24q-29 -36 -71 -44q-11 -2 -22 -2q-28 0 -48 17q-41 25 -49 67q-1 8 -1 16q0 33 25 60q45 70 45 101q-8 8 -16 14q-55 72 -60 125v5 q0 61 43 130q10 29 27 45l10 10q29 31 62 52v245h-37q-16 -2 -37 0l-27 -2q-2 -25 -18 -67q-6 -29 -31 -47.5t-53 -18.5q-4 0 -15.5 4t-21.5 4q-35 14 -48 51q-6 18 -6 35q0 19 7 37v8h-8q-2 2 -12.5 10.5t-14.5 13.5t-13.5 15.5t-13.5 18.5t-8 21.5t-4 25.5z" />
<glyph unicode="u" d="M109 248q-28 54 -28 105q0 63 42 124q33 25 49 35v563h166v-356q33 35 73 35q29 0 62 -19q58 -24 58 -73q0 -14 -5 -29q10 -8 23.5 -16.5t31 -15.5t23.5 -11q68 -29 107 -62q8 14 26 25q29 12 51 12q34 0 54 -28q73 46 135 46q7 0 14 -1v102l-6 -6q-35 -25 -72 -25 q-25 0 -41 17q-41 27 -51 78h-4q-18 -14 -43.5 -6t-40.5 38q-7 20 -7 40q0 13 3 27q8 34 31 52q34 29 64 29q25 0 48 -19q27 -27 31 -35v52q0 78 55 121q12 12 33 20v8h27q7 2 13 2t11 -2h115v-104q23 -18 33 -53q4 -16 4 -30q0 -44 -37 -69v-344q36 -49 36 -97t-36 -95v-25 q6 -6 19 -12q35 -35 35 -68q0 -27 -23 -53q-10 -10 -31 -23v-104h-166v111q-135 -111 -327 -111q-113 0 -220 45q-18 -27 -49 -37q-45 -20 -53 -20q-68 0 -100 63q-4 27 -21.5 57.5t-35 52t-44 51.5t-32.5 38zM358 350q37 -90 121.5 -138t184.5 -48q123 0 211 66.5 t110 175.5q-8 2 -18 2q-16 -6 -35 -17q-53 -33 -96 -33q-45 0 -76 19q0 -6 -4 -15q-10 -32 -56 -62q-38 -25 -94 -25q-12 0 -24 1q-100 29 -121 43q-12 2 -48 14.5t-55 16.5zM397 936v43q-9 14 -9 31.5t9 36.5q14 18 39 24q8 2 17 2q16 0 32 -8q8 -6 15.5 -13.5t11.5 -17.5 t6 -17t3 -20.5t1 -18.5v-21.5v-20.5v-33l13 6q50 26 86 26q30 0 51 -17q24 -20 26 -51q0 -5 1 -11q0 -24 -6 -38q-7 -18 -21 -50q-2 -6 -6 -12t-6.5 -10.5t-2.5 -10.5q0 -35 -16 -51q-18 -18 -43 -18q-27 0 -45 18q-20 23 -20 50q0 18 8 38q-20 -2 -36 -2q-45 0 -63 16 q-45 31 -45 150z" />
<glyph unicode="v" d="M85 904q9 34 38 50q20 10 49 11v112h166v-129q12 96 78 121q15 5 31 5q23 0 43 -10q36 -17 50.5 -34.5t45.5 -60.5q4 -4 8 -12.5t8 -13.5t10 -9q37 -20 43 -53q12 -33 -6 -60q-18 -35 -51 -37q-12 -4 -25 -4q-43 0 -81 45q-25 -84 -78 -102q-20 -8 -31 -10l68 -113 q27 24 56 24q22 0 46 -14q48 -26 48 -75q0 -13 -3 -27l18 -10q61 -31 91 -80q33 10 59 -4l121 202q-14 8 -27 25q-8 -33 -39 -78q-14 -6 -33 -6q-43 0 -61 33q-14 22 -13.5 45t13.5 47q0 6 -3 22.5t-3 18.5q0 14 -4 34.5t-4 33.5q0 88 53 108q15 8 29 8q17 1 31 -11 q28 -22 67 -71l14 -18v10q4 8 13.5 32.5t15.5 37t15.5 31t19.5 32t22 21.5v106h166v-174q0 -2 4 -6t4 -6q6 -12 21 -33q45 -14 53 -57q1 -9 1 -18q0 -25 -9 -47q-12 -28 -37 -38q-12 -5 -25 -5q-20 0 -38 14l-175 -289q33 -20 52 -39q54 -52 54 -106q0 -44 -36 -89 q0 -6 23 -20q28 -28 28 -54q0 -22 -20 -44q-25 -29 -55 -29q-8 0 -41 16q-53 45 -69 89q-11 30 -12 51q0 10 3 19q8 26 30 56q0 2 -2 6.5t-2 8.5q-16 12 -24 12l-158 -264q-23 -25 -51 -31h-2h-4h-6h-2h-7h2h-6h-2q-33 6 -53 31l-86 145l-6 2h-10q0 -23 -19 -74 q-6 -29 -30.5 -47t-53.5 -18q-4 0 -15 4t-22 4q-35 14 -49 51q-7 17 -7 34q0 19 9 38v8h-8l-14 10q-14 12 -19.5 18.5t-15.5 20t-14.5 26.5t-4.5 30q0 72 76 120q27 20 51 27l-172 291q-18 21 -18 49q0 9 2 18v9l-4 2h-7q-42 0 -73 43q-7 15 -7 33q0 14 4 29z" />
<glyph unicode="w" d="M82 278q8 34 31 54q35 28 66 28q23 0 44 -16l-43 70q-16 27 -10 57v606h166v-78q2 -12 2 -69v-33l12 6q49 26 86 26q30 0 51 -18q8 -8 14.5 -15t8.5 -17.5t4 -16.5t0 -17t-2 -16.5t-5 -18.5t-6 -16t-7 -18l-7 -14q-2 -6 -6 -12.5t-6 -10.5t-2 -10q0 -33 -16 -51 q-18 -18 -43 -19q-27 0 -45 19q-21 23 -21 52q0 17 8 36q-4 0 -10 -1t-10 -1v-268q28 14 49 14q23 0 39 -16q29 -14 57 -78l6 -6q39 0 54 -58l39 66v20q-26 41 -26 84.5t26 89.5v244h166v-141q20 0 40 -4q24 19 54 19q7 0 14 -1q27 -8 41 -34.5t8 -59.5q-25 -66 -88 -80 q-31 -4 -57 4l-12 4v-149l16 -29l12 -6q10 8 25.5 25.5t17.5 19.5q63 76 109 80q4 1 9 1q25 0 54 -20v592h166v-606q6 -31 -10 -57l-98 -164q18 7 35.5 7t33.5 -7l10 -8q12 -8 18.5 -13.5t12.5 -18.5t8 -28q4 -37 4 -39q-12 -43 -59 -53q-14 -4 -43 4q-6 0 -8 -8 q-20 -6 -57 -25.5t-48 -23.5q-14 -4 -39 -4q-10 -14 -24 -23q-2 0 -5 -1t-5 -3q-16 -6 -31 -6h-2h-10q-4 0 -11.5 2t-11.5 4l-8 4q-16 10 -25 21q0 2 -2 5t-4 5l-114 190l-107 -178q-12 -29 -37 -43q-20 -10 -33 -10h-10h-10q-14 2 -33 10q-25 16 -33 41l-45 74 q-6 -10 -16 -16q-39 -25 -72 -25q-23 0 -41 18q-39 27 -51 76h-4q-20 -14 -45 -5t-39 40q-7 19 -7 38q0 14 3 27zM694 956q0 27 35 45q29 16 55 11q-14 23 4 51q15 20 36 20q11 0 24 -6q29 -10 22 -37q8 0 9 -4q45 -20 49 -45q1 -4 1 -8q0 -22 -28 -43q-28 -22 -58 -22 q-9 0 -18 2h-6q0 -7 -8 -27q-6 -25 -41 -25l-6 2l-12 2q-16 2 -21.5 15.5t-1.5 27.5v5h-2q-33 20 -33 36z" />
<glyph unicode="x" d="M154 799q-9 22 -9 41q0 24 15 43l-2 6q-5 30 -5 55q0 74 40 107l-19 26h72l6 2q22 6 41 6q23 0 43 -8h43l72 -100q18 0 41 10q25 4 50 -12.5t40 -42.5q9 -28 9 -49q0 -35 -26 -49l-6 -5l-4 -2l96 -135q6 37 15.5 57.5t17.5 29.5t37 38q-55 12 -96 94q-4 16 -4 31 q0 28 14 53q22 39 70 52q23 10 43 10q42 0 67 -45q6 0 84 26l19.5 6.5l19.5 6.5l18 26h205l-28 -41q10 -8 34 -53q11 -10 11 -35q0 -16 -5 -40q-12 -60 -67 -107q-78 -49 -117 -56q-12 -8 -50 -27.5t-54 -29.5l-23 -33q8 -4 94 -4q17 1 33 1q120 0 164 -54q2 -4 8 -20.5 t10.5 -28.5t3.5 -33.5t-10 -40.5q-2 -6 -8 -23.5t-14 -27.5q-36 -33 -79 -33q-18 0 -38 6q-18 8 -51 37q-4 4 -8 4t-6 -2l-3 -2q-4 0 -129 6l156 -217q-14 33 -4 56q8 45 61 57q22 6 39 6t31 -6q29 -16 45 -68v-8q18 4 35.5 -7t19.5 -32q1 -4 1 -8q0 -11 -9 -23 q-12 -16 -35 -20q-14 -3 -27 -3q-42 0 -63 36v-8q-8 -37 -37 -54l101 -141h-205l-92 131q-23 -26 -47 -26q-9 0 -19 4q-16 -6 -61 -46q-75 -60 -129 -60q-18 0 -35 7l-6 2q-41 25 -41 71q0 14 4 30q20 53 72 57q27 20 47 33q68 55 114 69l-77 109l-271 -381h-204l155 219 q-25 10 -29 14q-39 27 -51 78h-4q-20 -14 -44.5 -6t-39.5 39q-7 20 -7 40q0 12 3 26q8 34 31 55q33 27 63 27q25 0 49 -19q23 -18 31 -35v51q0 82 56 121q37 31 70 31h7l-190 270l-2 -4q2 -18 2 -30q8 -20 10 -47t-10 -58t-47 -37q-27 -8 -52.5 10.5t-39.5 53.5z" />
<glyph unicode="y" d="M104 -86q0 80 54 109q12 6 23.5 7t23.5 -5.5t20 -11.5t21.5 -19t19.5 -20.5t21 -24.5q4 -10 12 -19v9q47 121 82 149q14 14 33 18q14 5 27 5q60 0 118 -99q6 -14 23 -30v12v67l-58 97q-28 -6 -54 -6q-95 0 -163 79q-39 100 -42 129v9q0 28 14 75q-14 -4 -29 -4 q-47 0 -103 39q-33 31 -33 76q0 46 36 82q25 33 67 37l-29 47q-18 21 -18 49q0 9 2 18v289h166v-286l16 -29l15 14l-7 6q-9 17 -9 36q0 14 5 29q13 34 43 48l7 8l-9 4q0 4 -3 22.5t-4 31t3 31t17 30.5q36 41 101 41q13 0 28 -2q63 -6 96 -51q23 72 90 92q16 8 32 8t33 -8 q33 -15 48 -49q9 -20 9 -38q0 -35 -34 -63l6 -20q2 -4 4 -10.5t4 -8.5l2 5q16 28 42 28q17 0 38 -12q35 -16 35 -62q29 12 45 15v190h166v-274q20 -20 21 -105q-6 -10 -7 -26q12 -29 7 -47q-16 -41 -58 -41h-8l-8 6q-14 4 -29 22l-174 -295l4 -2q8 12 8 15q2 2 15.5 17 t16.5 18.5t15.5 15.5t19.5 15t18.5 9.5t21.5 7.5t22 1q8 0 22.5 -4t20.5 -4q23 35 43 47q23 12 50.5 2.5t38.5 -33.5q8 -16 8 -31q0 -24 -19 -45q-10 -41 -12 -55q2 -14 -1 -34.5t-3 -25.5q-10 -39 -30.5 -56t-43.5 -17q-18 -6 -42.5 8t-37.5 47q-2 6 -10 37q4 6 -2 8 l-6 -10l-43 -43v-11q0 -47 -31 -92q-37 -41 -65 -57q-41 -27 -47.5 -37t-6.5 -51q4 -12 13 -12l8 2q92 -10 151.5 -64.5t96.5 -210.5q1 -7 1 -13q0 -39 -21 -69q-25 -36 -62 -41q-13 -3 -25 -3q-30 0 -55 18q-35 24 -37 71q-18 84 -39 101q-12 2 -20 0q-63 6 -103 26 q-23 -113 -97.5 -168t-234.5 -55h-82v166h82h13q80 2 113.5 25.5t45.5 87.5q-12 2 -17 -2t-15.5 3t-14.5 7t-13 10t-12 12t-11.5 13.5t-10.5 14.5t-9 14.5t-9 13.5q-2 4 -9.5 13t-11.5 13q-10 -33 -22 -57q-35 -117 -84 -137q-20 -10 -43 -2t-39 30q-6 -31 -39 -77 q-14 -8 -33 -9q-43 0 -59 35q-12 16 -12 45t12 47q0 4 -4 20.5t-4 18.5q0 14 -4.5 36t-4.5 34zM530 492q18 -20 27 -70l4 -4l4 2q88 60 153 60q25 0 46 -9q4 -4 24 -20l158 264v2q-31 -18 -57 -18q-15 0 -29 6q-37 18 -37 71q-37 -49 -118 -57q-51 0 -74 8q1 -12 1 -24 q0 -38 -14 -80q-31 -70 -71 -105q-2 -4 -8.5 -13t-8.5 -13z" />
<glyph unicode="z" d="M174 0v117l51 55l78 86q10 16 23 25l348 387q10 23 24 32l19 13l176 196h-55q-29 -8 -39 -8h-35q-10 4 -27 8h-32q-33 -25 -95 -37q-55 0 -125 37h-102q2 -2 5 -7t5 -7q20 -29 30.5 -45t25 -43t18.5 -45.5t4 -41t-10 -40.5q-14 -41 -90 -76h-37l-47 6l-35 25q-7 16 -7 30 q0 37 50 58h8q1 3 1 7q0 30 -60 116q-27 29 -45 63h-25v60q-7 20 -7 36.5t7 30.5v39h29l33 27q44 35 97 35q71 0 159 -62h669v-116l-84 -91l-35 -39q6 -8 14.5 -24t10.5 -21l4 -6q41 0 55 -61q6 -19 6 -34q0 -44 -47 -69q-17 -9 -33 -9q-36 0 -69 44q8 -16 8 -43 q0 -74 -67 -129q-38 -24 -69 -24h-3l-10 2q-16 4 -31 14q-25 20 -43 55l-270 -301q2 0 2 -4q0 -2 2 -4q12 -23 65 -43v2q2 4 6 10q0 137 222 166q35 0 60.5 -19.5t25.5 -45.5q4 -35 -15.5 -59.5t-54.5 -24.5q-61 -8 -80 -23v-14h215q-4 18 2 37q14 45 64 57q20 6 37.5 6 t31.5 -6q29 -18 45 -65v-11q16 4 35 -6q21 -11 21 -37q0 -22 -21 -37v-104h-987z" />
<glyph unicode="}" horiz-adv-x="1239" />
<glyph unicode="~" d="M129 528q-53 145 8.5 249t192.5 151q84 29 162.5 27.5t147.5 -53.5t103 -150q49 -133 201 -78q74 27 99.5 78t3.5 110l155 58q53 -145 -8 -250t-193 -150q-84 -29 -162.5 -27.5t-147 53.5t-103.5 150q-49 133 -201 78q-74 -27 -99.5 -78t-2.5 -110z" />
<glyph unicode="&#xa0;" />
<glyph unicode="&#xa1;" horiz-adv-x="1024" />
<glyph unicode="&#xa2;" d="M172 578v2v202q0 197 118 320t292 149v183h166v-181q193 -20 301 -128.5t108 -280.5h-166q0 90 -57 157.5t-186 83.5v-813q244 33 243 244h166q0 -172 -108.5 -280.5t-300.5 -129.5v-219h-166v222q-147 23 -254 112q-156 131 -156 357zM338 578q0 -125 68.5 -202 t175.5 -100v807q-106 -23 -175 -99.5t-69 -201.5v-202v-2z" />
<glyph unicode="&#xa3;" d="M168 0v166h82l123 33q20 6 37.5 18t30 46t1.5 81l-63 240h-174v166h129l-17 61q-61 219 19 368.5t262 194.5q184 53 326.5 -36t203.5 -308l-163 -43q-78 293 -324 232q-248 -66 -166 -363l29 -106h373v-166h-328l49 -183q0 -2 1 -6t1 -6q37 -127 -12 -223h565v-166h-985z " />
<glyph unicode="&#xa5;" d="M158 1360h184l320 -522l319 522h184l-321 -524h289v-148h-388v-184h388v-148h-388v-356h-165v356h-383v148h383v184h-383v148h282z" />
<glyph unicode="&#xad;" d="M418 573v166h497v-166h-497z" />
<glyph unicode="&#xb1;" d="M197 211v166h387v334h-387v166h387v421h166v-421h385v-166h-385v-334h385v-166h-938z" />
<glyph unicode="&#xb4;" />
<glyph unicode="&#xbc;" d="M178 745q0 16 11.5 27.5t27.5 11.5h219v516h-219q-16 0 -27.5 12.5t-11.5 29t11.5 28.5t27.5 12h262q16 0 28.5 -12t12.5 -29v-557h103l317 576h203l-752 -1360h-203l390 702h-361q-16 0 -27.5 12.5t-11.5 30.5zM668 211l10 10l405 447q31 31 60 2q18 -18 12 -39v-588 q0 -18 -11.5 -30.5t-27.5 -12.5q-18 0 -30.5 12.5t-12.5 30.5v107h-368l-11 2h-2q-12 4 -16 8q-23 23 -8 51zM797 231h276v304z" />
<glyph unicode="&#xbd;" d="M176 745q0 16 12.5 27.5t28.5 11.5h219v516h-219q-16 0 -28.5 12.5t-12.5 29t12.5 28.5t28.5 12h262q16 0 28.5 -12t12.5 -29v-557h103l317 576h203l-402 -725q68 45 152 45q98 0 172 -60.5t74 -164.5q6 -20 -11 -41l-337 -330h266v109q0 16 12 27t28.5 11t29 -11 t12.5 -27v-150q0 -18 -12.5 -30.5t-28.5 -12.5h-410l-10 2q-6 0 -10 4q-8 4 -11 6q-29 29 0 60l400 389q-6 57 -49 98q-45 39 -115 39q-68 0 -116 -40t-48 -116q0 -16 -12 -28.5t-28.5 -12.5t-29 12.5t-12.5 28.5v23l-256 -465h-203l390 702h-361q-16 0 -28.5 12.5 t-12.5 30.5z" />
<glyph unicode="&#xbe;" d="M178 903q0 16 11.5 28.5t27.5 12.5q18 0 30.5 -12t12.5 -29q0 -57 49 -88t114.5 -31t114 31t48.5 86q-4 41 -43 70.5t-109 29.5h-67q-16 0 -28.5 12.5t-12.5 29t12 28.5t29 12h67q74 0 113 33t39 74q-2 47 -45 78q-49 33 -119 32q-66 0 -114 -30.5t-48 -85.5 q0 -18 -12 -30.5t-31 -12.5q-16 0 -27.5 12t-11.5 31q0 92 73 145t171 53h10h2q109 0 172.5 -57t63.5 -133v-4v-4v-4q-6 -84 -84 -138q78 -49 84 -135v-4v-4v-4q0 -18 -2 -29l272 494h203l-752 -1360h-203l422 764q-66 -61 -176 -62h-2h-8q-96 0 -166 48q-80 53 -80 153z M668 211l10 10l405 447q31 31 60 2q18 -18 12 -39v-588q0 -18 -11.5 -30.5t-27.5 -12.5q-18 0 -30.5 12.5t-12.5 30.5v107h-368l-11 2h-2q-12 4 -16 8q-23 23 -8 51zM797 231h276v304z" />
<glyph unicode="&#xc4;" d="M143 0l41 119l404 1181l20 60h117l20 -60l404 -1181l41 -119h-168l-35 102l-41 121h-559l-41 -121l-35 -102h-168zM365 1499v215h219v-215h-219zM444 389h445l-221 635zM750 1499v215h219v-215h-219z" />
<glyph unicode="&#xd6;" d="M172 680q0 170 35 298t85 198.5t120.5 113.5t130 56.5t123 13.5t122 -13.5t129 -56.5t120.5 -113.5t85 -198.5t35 -298t-35 -298t-85 -198.5t-120.5 -113.5t-129 -56.5t-122 -13.5t-123 13.5t-130 56.5t-120.5 113.5t-85 198.5t-35 298zM338 680q0 -289 100 -414 q81 -100 228 -100q145 0 225 100q100 125 100 414t-100 416q-80 98 -225 98q-147 0 -228 -98q-100 -127 -100 -416zM365 1499v215h217v-215h-217zM750 1499v215h219v-215h-219z" />
<glyph unicode="&#xd7;" d="M250 412l299 299l-299 297l117 118l299 -299l299 299l116 -118l-297 -297l297 -299l-116 -119l-299 299l-299 -299z" />
<glyph unicode="&#xdc;" d="M174 444v11v905h166v-885q0 -150 96 -229.5t230 -79.5q135 0 231 80t96 229v885h166v-1360h-166v111q-135 -111 -327 -111h-11q-188 4 -325 119q-143 121 -156 325zM365 1499v215h219v-215h-219zM750 1499v215h219v-215h-219z" />
<glyph unicode="&#xe0;" horiz-adv-x="1024" />
<glyph unicode="&#xed;" horiz-adv-x="1239" />
<glyph unicode="&#xf6;" d="M172 473v133v4q2 217 148.5 342t343.5 125q199 0 346 -126t147 -345v-133q0 -221 -146 -347t-347 -126q-199 0 -345.5 126t-146.5 347zM338 473q0 -150 96 -228.5t230 -78.5q143 0 235 86t92 221v129q0 135 -93 222t-234 87q-133 0 -229.5 -79.5t-96.5 -229.5v-129z M365 1145v215h217v-215h-217zM750 1145v215h219v-215h-219z" />
<glyph unicode="&#xf7;" d="M197 612v166h938v-166h-938zM510 301.5q0 63.5 47 108.5t109 45q66 0 110.5 -45t44.5 -108.5t-46 -110t-109 -46.5q-61 0 -108.5 46.5t-47.5 110zM510 1083q0 63 47 108.5t109 45.5q66 0 110.5 -45t44.5 -109q0 -61 -46 -108t-109 -47q-61 0 -108.5 47t-47.5 108z" />
<glyph unicode="&#xfc;" d="M174 473v604h166v-604q0 -150 96 -228.5t230 -78.5q143 0 235 86t92 221v604h166v-1077h-166v111q-135 -111 -327 -111q-199 0 -345.5 126t-146.5 347zM365 1145v215h219v-215h-219zM750 1145v215h219v-215h-219z" />
<glyph unicode="&#xff;" d="M172 737v289h166v-287l328 -546l325 546v287h166v-307q0 -27 -14 -43l-2 -6l-393 -660v-125v-8q-2 -100 -14.5 -162.5t-46.5 -119t-104.5 -82t-181.5 -25.5h-82v166h82q121 0 151 51t30 238v67l-394 660q-23 27 -16 67zM365 1094v215h217v-215h-217zM750 1094v215h219 v-215h-219z" />
<glyph unicode="&#x2000;" horiz-adv-x="857" />
<glyph unicode="&#x2001;" horiz-adv-x="1714" />
<glyph unicode="&#x2002;" horiz-adv-x="857" />
<glyph unicode="&#x2003;" horiz-adv-x="1714" />
<glyph unicode="&#x2004;" horiz-adv-x="571" />
<glyph unicode="&#x2005;" horiz-adv-x="428" />
<glyph unicode="&#x2006;" horiz-adv-x="285" />
<glyph unicode="&#x2007;" horiz-adv-x="285" />
<glyph unicode="&#x2008;" horiz-adv-x="214" />
<glyph unicode="&#x2009;" horiz-adv-x="342" />
<glyph unicode="&#x200a;" horiz-adv-x="95" />
<glyph unicode="&#x2010;" d="M418 573v166h497v-166h-497z" />
<glyph unicode="&#x2011;" d="M418 573v166h497v-166h-497z" />
<glyph unicode="&#x2012;" d="M418 573v166h497v-166h-497z" />
<glyph unicode="&#x2013;" horiz-adv-x="1858" d="M418 573v166h1024v-166h-1024z" />
<glyph unicode="&#x2014;" d="M172 573v166h985v-166h-985z" />
<glyph unicode="&#x2018;" d="M524 1325v283h281v-283h-281z" />
<glyph unicode="&#x2019;" d="M524 1325v283h281v-283h-281z" />
<glyph unicode="&#x202f;" horiz-adv-x="342" />
<glyph unicode="&#x205f;" horiz-adv-x="428" />
<glyph unicode="&#x25fc;" horiz-adv-x="1085" d="M0 0v1085h1085v-1085h-1085z" />
<glyph unicode="&#xfb02;" d="M150 911v166l133 4q2 221 132 344t322.5 123t313 -122.5t120.5 -348.5v-1077h-165v1077q0 143 -66 224t-203 81q-129 0 -208.5 -77.5t-79.5 -227.5h364v-166h-364v-911h-166v911h-133z" />
</font>
</defs>
</svg>
