<?xml version="1.0" standalone="no"?>
<!DOCTYPE svg PUBLIC "-//W3C//DTD SVG 1.1//EN" "http://www.w3.org/Graphics/SVG/1.1/DTD/svg11.dtd" >
<svg xmlns="http://www.w3.org/2000/svg">
<metadata></metadata>
<defs>
<font id="zxxsans" horiz-adv-x="1331" >
<font-face units-per-em="2048" ascent="1577" descent="-471" />
<missing-glyph horiz-adv-x="500" />
<glyph horiz-adv-x="0" />
<glyph horiz-adv-x="682" />
<glyph unicode=" " />
<glyph unicode="!" d="M524 0v283h281v-283h-281zM582 410v972h166v-972h-166z" />
<glyph unicode="&#x22;" d="M252 1182l74 411h262l-74 -411h-262zM743 1182l74 411h264l-73 -411h-265z" />
<glyph unicode="#" d="M145 330l21 166h129l43 366h-166l21 166h165l41 332h166l-41 -332h387l41 332h166l-41 -332h129l-20 -166h-129l-43 -366h166l-21 -166h-166l-41 -330h-166l41 330h-387l-41 -330h-166l41 330h-129zM461 496h387l43 366h-387z" />
<glyph unicode="$" d="M172 383v82h166v-82v-10q4 -88 73 -143t171 -74v426q-92 8 -167.5 40t-125 79t-79 104t-36.5 119q-2 6 -2 18v10v9q0 91 45 171t140 138.5t225 70.5v154h166v-158q112 -14 202.5 -62t148.5 -135t58 -198v-82h-166v82v10q-6 103 -92 160q-63 45 -151 57v-426 q180 -16 287 -114.5t120 -229.5q2 -4 2 -16v-8v-10q0 -141 -108.5 -252t-300.5 -129v-158h-166v162q-135 15 -246 88q-80 56 -122 134.5t-42 172.5zM338 952q3 -73 66 -131t178 -71v421q-104 -19 -174 -75.5t-70 -143.5zM748 156l2 2q102 16 171.5 72.5t69.5 142.5 q-3 73 -65.5 131t-177.5 71v-419z" />
<glyph unicode="%" d="M160 184l829 992h185l-830 -992h-184zM160 1071q0 120 85.5 204.5t205.5 84.5t205 -84.5t85 -204.5t-85 -206.5t-205 -86.5t-205.5 86.5t-85.5 206.5zM301 1071q0 -62 44.5 -106.5t105.5 -44.5q62 0 106.5 44t44.5 107q0 61 -44.5 105.5t-106.5 44.5q-60 0 -105 -44.5 t-45 -105.5zM590 291q0 121 86 206t207 85q120 0 205.5 -85t85.5 -206q0 -119 -85.5 -205t-205.5 -86t-206.5 86t-86.5 205zM731 291q0 -59 46.5 -104.5t105.5 -45.5q61 0 105 45t44 105q0 64 -43.5 107.5t-105.5 43.5q-60 0 -106 -44t-46 -107z" />
<glyph unicode="&#x26;" d="M156 471q0 134 64 238t175 157q-53 86 -53 224q0 57 15 106.5t46 91.5t85 66t126 24h13q68 -2 119.5 -27t81.5 -66.5t44.5 -90.5t14.5 -104q0 -126 -47 -211.5t-135 -116.5l258 -387q12 43 12 96v268h166v-268v-12q-3 -139 -72 -248l57 -84l48 -68l-66 -47l-2 -2h-2 l-64 -47l-49 68l-39 57q-133 -92 -305 -92q-195 0 -336 119q-155 131 -155 356zM322 471q0 -77 27.5 -137.5t74.5 -97t103.5 -55.5t119.5 -19q128 0 213 65l-336 506q-38 -9 -71 -27t-64 -48t-49 -78t-18 -109zM506 1042.5q0 -5.5 0.5 -22t2.5 -24t5.5 -21.5t8.5 -21.5 t13.5 -17.5t19 -15t25.5 -8.5t33 -3.5q26 2 46 10t31 22t18.5 26.5t9.5 33.5t3 32t0 32t-1 25q0 38 -11 64.5t-29.5 38t-34 15.5t-32.5 4t-32 -4t-33.5 -15.5t-29.5 -38t-11 -64.5v-7q0 -2 -1 -18.5t-1 -22z" />
<glyph unicode="(" d="M377 354v617q-1 119 42.5 222t114 170.5t158 105.5t176.5 38h84v-166h-84q-129 0 -227 -111t-98 -290v-557q0 -179 98 -290t227 -111h84v-166h-84q-95 1 -185 44.5t-157 115t-107.5 171t-41.5 207.5z" />
<glyph unicode=")" d="M377 -18h84q129 0 227 111t98 290v557q0 179 -98 290t-227 111h-84v166h84q89 0 176.5 -38t158 -105.5t114 -170.5t42.5 -222v-617q-1 -108 -41.5 -207.5t-107.5 -171t-157 -115t-185 -44.5h-84v166z" />
<glyph unicode="*" d="M178 858v166h289l-203 203l117 116l203 -202v286h166v-286l202 202l115 -116l-203 -203h289v-166h-289l203 -203l-115 -116l-202 202v-286h-166v286l-203 -202l-117 116l203 203h-289z" />
<glyph unicode="+" d="M197 616v166h387v422h166v-422h385v-166h-385v-421h-166v421h-387z" />
<glyph unicode="," d="M287 -164h92h12q99 2 137 35.5t47 128.5h-59v313h313v-313h-69q-6 -87 -24 -146t-59 -107.5t-114.5 -71.5t-183.5 -23h-92v184z" />
<glyph unicode="-" d="M418 573v166h497v-166h-497z" />
<glyph unicode="." d="M508 0v313h313v-313h-313z" />
<glyph unicode="/" d="M188 0l752 1360h203l-752 -1360h-203z" />
<glyph unicode="0" d="M172 539v284q-1 246 105.5 391.5t285.5 145.5h205q179 0 285.5 -145.5t105.5 -391.5v-284q-1 -151 -44 -270t-132.5 -193t-214.5 -76h-205q-125 2 -214.5 76t-132.5 193t-44 270zM338 567q0 -196 53 -298.5t172 -102.5h205q119 0 172 102.5t53 298.5v226q0 196 -53 298.5 t-172 102.5h-205q-119 0 -172 -102.5t-53 -298.5v-226z" />
<glyph unicode="1" d="M174 0v166h520v1028l-420 -117v166l420 117h166v-1194h299v-166h-985z" />
<glyph unicode="2" d="M172 0v72q-3 11 0 20v27l82 80v-2l735 723q-9 120 -94 196q-90 78 -229 78q-86 0 -158 -31.5t-121 -103.5t-49 -174v-82h-166v82v12q2 110 45 200t113 146.5t156.5 86.5t179.5 30q92 0 177.5 -30t154.5 -85.5t112 -144.5t47 -199q7 -47 -22 -76l-678 -659h534v299h166 v-465h-985z" />
<glyph unicode="3" d="M174 399v84h166v-84q0 -76 50 -130.5t122.5 -78.5t155.5 -24q82 0 154 23.5t121.5 76t49.5 123.5q-5 85 -84 147t-223 62h-213v166h213q143 0 222.5 62t84.5 145q-6 99 -92 159q-92 64 -235 64q-82 0 -154 -24t-122 -78.5t-50 -130.5v-84h-166v84v12q3 122 76.5 212 t182 132.5t233.5 42.5h16h4q112 0 204 -32.5t149.5 -87t88.5 -121.5t31 -140v-8v-10q0 -13 -2 -19q-8 -77 -50 -145t-116 -117q74 -49 116 -117t50 -145q2 -6 2 -19v-8v-10q0 -72 -31 -139t-88.5 -121.5t-149.5 -87.5t-204 -33h-4h-14q-194 0 -330 94q-79 54 -121.5 132.5 t-42.5 172.5z" />
<glyph unicode="4" d="M197 436l845 924h119v-1360h-166v299h-737zM446 465h549v600z" />
<glyph unicode="5" d="M172 475v84h166v-84v-12q2 -74 31 -132.5t75.5 -93.5t103 -53t118.5 -18q145 0 239 88q86 95 86 240q0 133 -79.5 230t-227.5 97h-512v539h985v-166h-819v-207h364h11q106 -6 192.5 -50t140 -113.5t82.5 -154t29 -175.5v-15v-4q0 -220 -151 -354q-128 -121 -322 -121h-4 h-14q-197 0 -338 119q-156 132 -156 356z" />
<glyph unicode="6" d="M170 512q0 33 2 47v354l2 7q6 105 50 190.5t113 139t153.5 82t175.5 28.5q94 0 181 -31t156.5 -88.5t111.5 -150t42 -205.5v-82h-96q94 -121 94 -291v-20q2 -4 2 -17q0 -231 -166 -364q-127 -111 -309 -111h-27q-189 3 -327 119q-147 122 -156 327v48q-2 8 -2 18z M336 492q2 -4 2 -17q0 -102 49 -174t121 -103.5t158 -31.5q128 0 221 72q102 96 102 256q0 147 -86 239q-7 3 -10 10q-94 78 -229 78q-62 0 -118.5 -18t-103 -53t-75.5 -93t-31 -131v-34zM338 877q134 110 344 110h10q176 0 299 -110v8q0 147 -96 231q-90 78 -229 78 q-86 0 -158 -31.5t-121 -103.5t-49 -174v-8z" />
<glyph unicode="7" d="M172 1194v166h82h2h901v-64q2 -6 2 -18v-363q2 -10 -2 -30v-2q-2 -2 -2 -4q0 -1 -1 -3.5t-1 -3.5v-2q-1 -1 -2 -3t-2 -3l-12 -18l-721 -848h-219l796 936v260h-737h-2h-82z" />
<glyph unicode="8" d="M172 381v8v10q0 13 2 19q8 77 50 145t116 117q-74 49 -116 117t-50 145q-2 6 -2 19v8v10q0 73 31 140t88.5 121.5t149.5 87t204 32.5h4h15h16h4q112 0 204 -32.5t149.5 -87t88.5 -121.5t31 -140v-8v-10q0 -13 -2 -19q-8 -77 -50 -145t-116 -117q74 -49 116 -117t50 -145 q2 -6 2 -19v-8v-10q0 -72 -31 -139t-88.5 -121.5t-149.5 -87.5t-204 -33h-4h-14h-11h-6h-4h-14q-109 2 -198 35.5t-145 87.5t-86 120.5t-30 137.5zM338 389q4 -73 54.5 -125.5t121.5 -75t152 -22.5q82 0 154 23.5t121.5 76t49.5 123.5q-5 85 -84 147t-223 62h-39h-14 q-137 -4 -212.5 -65.5t-80.5 -143.5zM338 971q5 -83 84.5 -145t222.5 -62h39q143 0 222.5 62t84.5 145q-6 99 -92 159q-92 64 -235 64q-82 0 -154 -23.5t-122 -76t-50 -123.5z" />
<glyph unicode="9" d="M174 848v2v16v15v4q0 203 131 334q131 141 342 141h4h17q91 0 175.5 -29t153 -83.5t112.5 -141t50 -191.5v-12v-448q0 -211 -139 -332q-145 -123 -391 -123h-82v166h82q55 0 103 6.5t97.5 26t84.5 50.5t57 84t22 122v28q-134 -110 -325 -110h-11h-6h-4h-12 q-176 3 -299 110l-6 6q-156 135 -156 359zM340 866q0 -144 84 -237q93 -90 244 -90q63 0 119.5 19t103.5 55.5t74.5 97t27.5 137.5v37q0 147 -96 231q-94 78 -229 78q-145 0 -238 -84q-90 -93 -90 -244z" />
<glyph unicode=":" d="M494 84v344h344v-344h-344zM494 952v344h344v-344h-344z" />
<glyph unicode=";" d="M281 -66h92h12q95 2 133.5 33t48.5 117h-73v344h344v-344h-84q-6 -66 -18.5 -114.5t-39 -92t-68 -70t-105.5 -42t-150 -15.5h-92v184zM494 952v344h344v-344h-344z" />
<glyph unicode="=" d="M197 479v166h938v-166h-938zM197 811v166h938v-166h-938z" />
<glyph unicode="?" d="M338 1059q0 46 9.5 91.5t33.5 91.5t60 80.5t94 56.5t131 22t130.5 -22t93.5 -56.5t60 -80.5t33.5 -91.5t9.5 -91.5q0 -127 -91.5 -218t-235.5 -91q-38 0 -64.5 -11t-38 -29.5t-16 -34.5t-4.5 -32q0 -38 11 -64.5t29.5 -38t34 -16t31.5 -4.5t32 4.5t34.5 16t29.5 38 t11 64.5h166q0 -77 -26 -140t-89.5 -106t-157.5 -43q-71 0 -125 24.5t-85 66t-46.5 91.5t-15.5 107q0 71 24.5 125t66 85t91.5 46.5t107 15.5q18 0 40.5 5t52 18.5t49 45t19.5 75.5q0 80 -46 128t-115 48t-115.5 -48t-46.5 -128h-166zM510 141q0 58 41 100t98 42 q60 0 101 -41.5t41 -100.5q0 -58 -41.5 -99.5t-100.5 -41.5q-57 0 -98 42t-41 99z" />
<glyph unicode="@" d="M129 686q0 128 37.5 247t106.5 212.5t177.5 150t239.5 56.5h6q111 -1 207.5 -50.5t160 -127t100 -172t36.5 -187.5q0 -98 -33 -200t-94 -185v-199h-166v60q-80 -41 -180 -41q-143 0 -245.5 102t-102.5 244t102.5 244t245.5 102q97 0 178.5 -50.5t126.5 -133.5q4 40 4 57 q0 142 -104.5 256.5t-239.5 114.5q-176 0 -287.5 -143t-111.5 -357q0 -167 49 -304t150 -222.5t239 -85.5h84v-166h-84q-140 0 -255.5 63.5t-190.5 171.5t-115.5 247.5t-40.5 295.5zM547 596q0 -72 54.5 -126t125.5 -54q72 0 126 53.5t54 126.5q0 74 -53.5 127t-126.5 53 q-72 0 -126 -53t-54 -127z" />
<glyph unicode="A" d="M143 0l41 119l404 1181l20 60h117l20 -60l404 -1181l41 -119h-168l-35 102l-41 121h-559l-41 -121l-35 -102h-168zM444 389h445l-221 635z" />
<glyph unicode="B" d="M172 0v1360h530h9q106 -4 192.5 -38t141 -87.5t83.5 -119.5t29 -136q0 -87 -43 -166t-125 -133q82 -54 125 -133t43 -166q0 -69 -29 -135t-83.5 -120t-141 -88t-192.5 -38h-9h-530zM338 166h346q148 0 227.5 65t79.5 150q0 87 -79.5 152t-227.5 65h-346v-432zM338 764 h346h14q141 4 217 68t76 147q0 85 -79.5 150t-227.5 65h-346v-430z" />
<glyph unicode="C" d="M172 446v11v448v13q6 105 50 191t113 139.5t153.5 82.5t175.5 29q95 0 182 -31t157 -88.5t112 -150t42 -205.5h-166q0 147 -96 231q-90 78 -231 78q-63 0 -120 -19t-103.5 -55.5t-74.5 -97t-28 -137.5v-410q0 -77 28 -137.5t74.5 -97t103.5 -55.5t120 -19t120.5 19 t104.5 55.5t74.5 97t27.5 137.5h166q0 -113 -42 -205.5t-112 -150t-157 -88.5t-182 -31h-11q-187 3 -325 119q-144 120 -156 327z" />
<glyph unicode="D" d="M172 0v1360h530q9 0 15 -2q102 -8 187 -65.5t145 -159.5q108 -187 108 -453q0 -267 -108 -451q-60 -103 -145.5 -161.5t-186.5 -65.5q-4 -2 -15 -2h-530zM336 166h348q138 0 221 145q86 147 86 369q0 98 -20 188.5t-57 164t-97 117.5t-133 44h-348v-1028z" />
<glyph unicode="E" d="M172 0v1360h985v-166h-819v-430h520v-166h-520v-432h819v-166h-985z" />
<glyph unicode="F" d="M172 0v1360h985v-166h-819v-354h670v-166h-670v-674h-166z" />
<glyph unicode="G" d="M172 446v11v448v13q6 105 50 191t113 139.5t153.5 82.5t175.5 29q95 0 182 -31t157 -88.5t112 -150t42 -205.5h-166q0 147 -96 231q-90 78 -231 78q-63 0 -120 -19t-103.5 -55.5t-74.5 -97t-28 -137.5v-410q0 -77 28 -137.5t74.5 -97t103.5 -55.5t120 -19t120.5 19 t104.5 55.5t74.5 97t27.5 137.5v49h-373v166h539v-233v-13q-6 -106 -50 -192.5t-113 -140t-154 -82.5t-176 -29h-11q-187 3 -325 119q-144 120 -156 327z" />
<glyph unicode="H" d="M172 0v1360h166v-520h653v520h166v-1360h-166v674h-653v-674h-166z" />
<glyph unicode="I" d="M172 0v166h410v1028h-410v166h985v-166h-409v-1028h409v-166h-985z" />
<glyph unicode="J" d="M174 475v84h166v-84q0 -77 28 -137.5t74.5 -97t103.5 -55.5t120 -19t120.5 19t104.5 55.5t74.5 97t27.5 137.5v719h-520v166h686v-885q0 -113 -42 -205.5t-112 -150t-157 -88.5t-182 -31q-195 0 -336 119q-156 132 -156 356z" />
<glyph unicode="K" d="M172 0v1360h166v-596h76l489 561l31 35h33h14h176l-147 -168l-447 -512l473 -541l6 -8l115 -131h-223l-60 70l-462 528h-74v-598h-166z" />
<glyph unicode="L" d="M172 0v1360h166v-1194h819v-166h-985z" />
<glyph unicode="M" d="M172 0v1360h166l326 -1079l327 1079h166v-1360h-166v807l-243 -807h-166l-244 807v-807h-166z" />
<glyph unicode="N" d="M172 0v1360h166l653 -1049v1049h166v-1360h-166l-653 1049v-1049h-166z" />
<glyph unicode="O" d="M172 680q0 123 18 224t47.5 170t71.5 122t85 83t94 49t92.5 25.5t85.5 6.5q43 0 84.5 -6.5t92 -25.5t93.5 -49t85 -83t71 -122t47 -170t18 -224t-18 -224t-47 -170t-71 -122t-85 -83t-93.5 -49t-92 -25.5t-84.5 -6.5q-44 0 -85.5 6.5t-92.5 25.5t-94 49t-85 83t-71.5 122 t-47.5 170t-18 224zM338 680q0 -290 100 -414q78 -100 228 -100q147 0 225 100q100 124 100 414t-100 416q-79 98 -225 98q-149 0 -228 -98q-100 -126 -100 -416z" />
<glyph unicode="P" d="M172 0v1360h530h11q106 -6 192.5 -50.5t140 -114t82.5 -154t29 -175.5t-29 -175.5t-82.5 -154t-140 -113.5t-192.5 -50h-11h-364v-373h-166zM338 539h346q148 0 227.5 97t79.5 230q0 63 -19 120.5t-55 104.5t-96.5 75t-136.5 28h-346v-655z" />
<glyph unicode="Q" d="M174 182v996q0 76 53 129t129 53h621q77 0 129.5 -53t52.5 -129v-721q0 -47 -35 -68l-108 -78l129 -180l47 -68l-66 -47l-2 -2h-2l-63 -47l-49 68l-129 180l-279 -201q-16 -10 -41 -14h-4h-10h-191q-76 0 -129 53.5t-53 128.5zM340 182l2 -8q4 -8 14 -8h172l256 184 l-147 207l-49 68l57 41q2 1 5 4t5 4q1 0 15 8l55 39l47 -68l148 -207l73 54v678q0 16 -16 16h-621q-16 0 -16 -16v-996z" />
<glyph unicode="R" d="M172 0v1360h530h11q106 -6 192.5 -50.5t140 -114t82.5 -154t29 -175.5q0 -142 -69 -265.5t-195 -182.5l242 -418h-193l-215 375q-2 0 -6.5 -1t-7.5 -1h-11h-364v-373h-166zM338 539h346q148 0 227.5 97t79.5 230q0 63 -19 120.5t-55 104.5t-96.5 75t-136.5 28h-346v-655z " />
<glyph unicode="S" d="M172 399v84h166v-84q0 -76 50 -130.5t122 -78.5t154 -24q83 0 155.5 23.5t122 76t49.5 123.5q-5 85 -84 147t-223 62h-47q-204 3 -326.5 103t-136.5 241q-2 6 -2 19v8v10q0 73 31 140t88.5 121.5t149.5 87t204 32.5h4h15q95 0 182 -26t157 -74.5t112 -126t42 -172.5v-84 h-166v84q0 104 -92 169q-92 64 -235 64q-82 0 -154 -23.5t-122 -76t-50 -123.5q5 -83 84.5 -145t222.5 -62h39h14q201 -4 321.5 -105t135.5 -241q2 -6 2 -19v-8v-10q0 -72 -31 -139t-88.5 -121.5t-149.5 -87.5t-204 -33h-4h-16q-192 0 -328 94q-79 54 -121.5 132.5 t-42.5 172.5z" />
<glyph unicode="T" d="M172 877v483h985v-483h-166v317h-243v-1194h-166v1194h-244v-317h-166z" />
<glyph unicode="U" d="M174 444v11v905h166v-885q0 -77 28 -137.5t74.5 -97t103.5 -55.5t120 -19t120.5 19t104.5 55.5t74.5 97t27.5 137.5v885h166v-1360h-166v111q-135 -111 -327 -111h-11q-187 3 -325 119q-144 123 -156 325z" />
<glyph unicode="V" d="M172 1010v350h166v-359l328 -722l327 727v272h-2v82h166v-64q2 -6 2 -18v-287q0 -30 -20 -53l-394 -872q-2 -12 -14 -31l-2 -4q-22 -25 -51 -31h-5h3h-3h-1h-6h-2h-7h2h-6h3h-5q-29 6 -51 31l-2 4q-12 19 -14 31l-396 876q-18 20 -18 49q0 9 2 19z" />
<glyph unicode="W" d="M172 1278v82h166v-64q2 -6 2 -18v-285v-12l143 -580l101 379v76h166v-80l100 -377l143 582v12v285h-2v82h166v-64q2 -6 2 -18v-270q2 -9 2 -18q0 -21 -12 -40l-213 -860v-7q0 -47 -39 -73q-23 -10 -33 -10h-10h-10q-14 2 -33 10q-41 23 -41 71v7l-102 383l-105 -383v-7 q0 -48 -41 -71q-20 -10 -33 -10h-10h-10q-16 3 -33 10q-39 26 -39 71v7l-213 862q-12 18 -12 40q0 9 2 18v270h-2z" />
<glyph unicode="X" d="M152 0l419 680l-419 680h192l322 -524l323 524h191l-418 -680l418 -680h-191l-323 524l-322 -524h-192z" />
<glyph unicode="Y" d="M172 903v457h166v-416l328 -239l325 239v416h166v-457q0 -58 -45 -74l-364 -264v-565h-166v565l-365 262q-45 19 -45 76z" />
<glyph unicode="Z" d="M172 0v74q-1 6 -1 11q0 25 15 44l732 1065h-580v-299h-166v465h895h16h74v-74q1 -6 1 -11q0 -25 -15 -44l-731 -1065h579v299h166v-465h-985z" />
<glyph unicode="[" d="M322 -184v1691h686v-166h-521v-1359h521v-166h-686z" />
<glyph unicode="\" d="M188 1360h203l752 -1360h-203z" />
<glyph unicode="]" d="M324 -18h520v1359h-520v166h686v-1691h-686v166z" />
<glyph unicode="_" d="M172 0v166h985v-166h-985z" />
<glyph unicode="a" d="M174 381q0 187 120.5 286t352.5 99h10h11q198 0 319 -76q-29 221 -248 221h-417v166h417q191 0 305.5 -122.5t114.5 -350.5v-2v-602h-166v78q-119 -78 -325 -78h-11h-10q-232 0 -352.5 98.5t-120.5 282.5zM340 381q0 -119 72.5 -167t234.5 -48h10h11q162 0 234.5 48 t72.5 167q0 55 -15 95t-40 63.5t-66 37.5t-84 18.5t-102 4.5h-11h-10q-59 0 -102 -4.5t-84 -18.5t-66 -37.5t-40 -63.5t-15 -95z" />
<glyph unicode="b" d="M172 0v1475h166v-508q134 110 326 110q94 0 181.5 -31t157.5 -88.5t112 -149t42 -202.5v-149v-13q-6 -106 -50 -192.5t-113 -140t-154 -82.5t-176 -29h-11q-182 3 -315 111v-111h-166zM338 475q0 -77 28 -137.5t74.5 -97t103.5 -55.5t120 -19t120.5 19t104.5 55.5 t74.5 97t27.5 137.5v127q0 136 -92.5 222.5t-234.5 86.5q-63 0 -120 -19t-103.5 -55.5t-74.5 -97t-28 -137.5v-127z" />
<glyph unicode="c" d="M172 455v10v8v133v4q1 110 44 201t112.5 148t156 87.5t179.5 30.5q95 0 182 -31t157 -89t112 -150t42 -205h-166q0 136 -92.5 222.5t-234.5 86.5q-63 0 -120 -19t-103.5 -55.5t-74.5 -97t-28 -137.5v-129v-8v-10q0 -69 22 -122t57 -84t84.5 -50.5t97.5 -26t103 -6.5h455 v-166h-455q-246 0 -391 123q-139 121 -139 332z" />
<glyph unicode="d" d="M174 446v11v149v4q1 110 44 201t112.5 148t156 87.5t179.5 30.5q193 0 327 -110v508h166v-1475h-166v111q-136 -111 -325 -111h-11q-90 2 -173 31.5t-150.5 83.5t-110.5 139.5t-49 191.5zM340 475q0 -102 49 -174t121 -103.5t158 -31.5q63 0 119.5 19t103.5 55.5t74.5 97 t27.5 137.5v127q0 136 -92.5 222.5t-234.5 86.5q-63 0 -120 -19t-103.5 -55.5t-74.5 -97t-28 -137.5v-127z" />
<glyph unicode="e" d="M172 455v8v8v2v133v4q1 110 44 201t112.5 148t156 87.5t179.5 30.5q95 0 182 -31t157 -89t112 -150t42 -205v-215h-813q42 -221 358 -221h455v-166h-455q-246 0 -391 123q-139 121 -139 332zM338 553h653v49v10q-4 133 -96 216t-231 83q-63 0 -120 -19t-103.5 -55.5 t-74.5 -97t-28 -137.5v-49z" />
<glyph unicode="f" d="M174 0v166h281v745h-281v166h281q1 67 6 114t17.5 96t36.5 80.5t61.5 57.5t93.5 38t131 12h358v-166h-358q-113 0 -145 -43.5t-35 -188.5h364v-166h-364v-745h538v-166h-985z" />
<glyph unicode="g" d="M174 473v129q0 113 42 205t112 150t157 89t181 31q193 0 327 -110v20v8v82h166v-82v-8v-1003q0 -211 -139 -332q-145 -123 -391 -123h-82v166h82q55 0 103 6.5t97.5 26t84.5 50.5t57 84t22 122v127q-135 -111 -327 -111q-94 0 -181 31t-157 88.5t-112 149t-42 204.5z M340 473q0 -76 28 -136.5t74.5 -96.5t103.5 -55t120 -19q142 0 234.5 85.5t92.5 221.5v129q0 136 -92.5 222.5t-234.5 86.5q-63 0 -120 -19t-103.5 -55.5t-74.5 -97t-28 -137.5v-129z" />
<glyph unicode="h" d="M172 0v1475h166v-508q134 110 326 110q95 0 182 -31t157 -89t112 -150t42 -205v-602h-166v602q0 136 -92.5 222.5t-234.5 86.5q-63 0 -120 -19t-103.5 -55.5t-74.5 -97t-28 -137.5v-602h-166z" />
<glyph unicode="i" d="M174 0v166h410v745h-328v166h494v-911h409v-166h-985zM532 1208v267h269v-267h-269z" />
<glyph unicode="j" d="M217 -305h174q55 0 103 7t97.5 26.5t84.5 50.5t57.5 83.5t22.5 121.5v927h-410v166h576v-1093q0 -207 -142.5 -331t-388.5 -124h-174v166zM705 1208v267h268v-267h-268z" />
<glyph unicode="k" d="M172 0v1475h166v-967l569 569h240l-502 -497l522 -580h-221l-416 465l-192 -191v-274h-166z" />
<glyph unicode="l" d="M172 0v166h410v1143h-410v166h576v-1309h409v-166h-985z" />
<glyph unicode="m" d="M172 0v621q0 86 7.5 153t27.5 125.5t51.5 96.5t81.5 59.5t117 21.5h4q136 0 203 -86q70 86 202 86h6q73 0 125 -22t82.5 -58.5t48.5 -97.5t23.5 -124.5t5.5 -153.5v-621h-166v621q0 69 -2 110t-8.5 79.5t-20 57.5t-35.5 30t-55 11q-80 0 -101 -59.5t-21 -228.5v-621h-166 v621q0 167 -21.5 226.5t-101.5 59.5q-33 0 -55 -11t-35.5 -29.5t-20 -57t-8.5 -79t-2 -109.5v-621h-166z" />
<glyph unicode="n" d="M172 0v602q0 91 27.5 168.5t75 133t110.5 95.5t134.5 59t146.5 19q94 0 181 -31t156.5 -89t111.5 -150t42 -205v-602h-166v602q0 77 -27.5 137.5t-74.5 97t-103.5 55.5t-119.5 19q-142 0 -235 -86.5t-93 -222.5v-602h-166z" />
<glyph unicode="o" d="M172 473v133v4q1 110 44 201t112.5 148t156 87.5t179.5 30.5q94 0 181.5 -31t157.5 -88.5t112 -149t42 -202.5v-133q0 -113 -42 -204.5t-112 -149t-157 -88.5t-182 -31q-94 0 -181 31t-157 88.5t-112 149t-42 204.5zM338 473q0 -76 28 -136.5t74.5 -96.5t103.5 -55 t120 -19q142 0 234.5 85.5t92.5 221.5v129q0 136 -92.5 222.5t-234.5 86.5q-63 0 -120 -19t-103.5 -55.5t-74.5 -97t-28 -137.5v-129z" />
<glyph unicode="p" d="M172 -471v1548h166v-110q134 110 328 110q94 0 181 -31t156.5 -89t111.5 -150t42 -205v-129q0 -113 -42 -204.5t-111.5 -149t-156.5 -88.5t-181 -31q-193 0 -328 111v-582h-166zM338 473q0 -135 93 -221t235 -86q62 0 119 19t104 55t74.5 96.5t27.5 136.5v129 q0 77 -27.5 137.5t-74.5 97t-103.5 55.5t-119.5 19q-142 0 -235 -86.5t-93 -222.5v-129z" />
<glyph unicode="q" d="M174 473v129q0 113 42 205t112 150t157 89t181 31q193 0 327 -110v110h166v-1548h-166v582q-135 -111 -327 -111q-94 0 -181 31t-157 88.5t-112 149t-42 204.5zM340 473q0 -76 28 -136.5t74.5 -96.5t103.5 -55t120 -19q142 0 234.5 85.5t92.5 221.5v129 q0 136 -92.5 222.5t-234.5 86.5q-63 0 -120 -19t-103.5 -55.5t-74.5 -97t-28 -137.5v-129z" />
<glyph unicode="r" d="M195 0v1077h165v-110q137 110 328 110q192 0 315 -124t123 -349h-165q0 142 -69 224.5t-204 82.5q-86 0 -158 -31.5t-121 -103.5t-49 -174v-602h-165z" />
<glyph unicode="s" d="M190 344h166q0 -41 20 -73.5t53.5 -50.5t67.5 -30t73.5 -16.5t58.5 -6t35 -1.5h21q21 -1 35 -0.5t42 2t48.5 6.5t47 13t45 21.5t35.5 31.5t26 45t9 59q0 36 -35 72.5t-107 36.5h-241q-58 0 -115.5 15t-110 45.5t-85.5 85.5t-33 126v2v39v2q0 78 40.5 140t105 97.5 t135 53.5t139.5 18q68 0 138 -18t134 -53.5t104.5 -97.5t40.5 -140h-165q0 59 -82.5 101t-169.5 42q-94 0 -174 -40t-80 -103v-2v-39v-2q0 -32 52 -69.5t126 -37.5h241q57 0 109.5 -15.5t98 -46.5t73 -86t27.5 -126q0 -68 -21.5 -123t-54.5 -90t-80 -61t-89.5 -39 t-92.5 -20.5t-78.5 -9t-58.5 -1.5q-26 0 -57.5 2.5t-79 11.5t-91.5 23.5t-90 41t-79.5 61t-55 87.5t-21.5 117z" />
<glyph unicode="t" d="M172 911v166h281v398h165v-398h365v-166h-365v-456q0 -66 1.5 -104.5t8 -75.5t17.5 -54.5t32.5 -32t50 -18.5t71.5 -4h6h6q43 0 71.5 4t49.5 18.5t32 32t17.5 54.5t8 75t1.5 105v84h166v-86v-4q0 -52 -1 -87t-5 -78t-11 -72t-19.5 -61t-30.5 -53t-43.5 -41.5t-59.5 -31.5 t-78 -18t-98 -7h-6h-6q-70 0 -123 11.5t-90 30t-62 52.5t-39 66t-21 85.5t-9 97t-2 112.5v456h-281z" />
<glyph unicode="u" d="M174 473v604h166v-604q0 -76 28 -136.5t74.5 -96.5t103.5 -55t120 -19q142 0 234.5 85.5t92.5 221.5v604h166v-1077h-166v111q-135 -111 -327 -111q-94 0 -181 31t-157 88.5t-112 149t-42 204.5z" />
<glyph unicode="v" d="M172 788v289h166v-286l328 -547l327 551v282h166v-307q0 -30 -20 -53l-410 -686q-22 -25 -51 -31h-5h3h-3h-1h-6h-2h-7h2h-6h3h-5q-29 6 -51 31l-412 690q-18 19 -18 48q0 9 2 19z" />
<glyph unicode="w" d="M174 471v606h166v-602l139 -231l105 174v438h166v-442l102 -172l141 233v602h166v-606q2 -9 2 -18q0 -21 -12 -39l-223 -371q-15 -22 -31 -33q-2 -1 -5.5 -2t-4.5 -2q-15 -6 -31 -6h-2h-10q-4 1 -11.5 3t-11.5 3l-8 4q-17 10 -25 21q-1 2 -3 5t-3 5l-114 190l-107 -178 q-12 -28 -37 -43q-20 -10 -33 -10h-10h-10q-16 3 -33 10q-24 17 -33 41l-219 363q-12 18 -12 39q0 9 2 18z" />
<glyph unicode="x" d="M174 1077h205l289 -407l286 407h205l-389 -551l371 -526h-205l-268 381l-271 -381h-204l372 526z" />
<glyph unicode="y" d="M172 788v289h166v-286l328 -547l325 547v286h166v-307q0 -26 -14 -43l-2 -6l-393 -660v-124v-5q-1 -83 -7.5 -137.5t-27.5 -109.5t-57.5 -86t-100 -50.5t-154.5 -19.5h-82v166h82h13q40 1 66.5 5.5t46 19.5t30 33t16.5 54.5t7.5 74.5t1.5 102v77l-394 660q-18 19 -18 48 q0 9 2 19z" />
<glyph unicode="z" d="M174 0v117l82 90l635 704h-717v166h985v-116l-82 -91l-635 -704h717v-166h-985z" />
<glyph unicode="}" horiz-adv-x="1239" />
<glyph unicode="~" d="M112 711q22 81 78 134t140 83q63 24 123 27t116 -14.5t101.5 -65.5t72.5 -123q49 -134 201 -78q73 27 99 77.5t4 110.5l155 58q39 -102 17 -183.5t-78 -134.5t-140 -82q-63 -24 -123 -27t-116 14.5t-101.5 65.5t-72.5 123q-49 134 -201 78q-73 -27 -98.5 -77.5 t-3.5 -110.5l-156 -58q-39 102 -17 183z" />
<glyph unicode="&#xa0;" />
<glyph unicode="&#xa1;" horiz-adv-x="1024" />
<glyph unicode="&#xa2;" d="M172 578v2v202q0 196 118.5 319t291.5 150v183h166v-181q193 -20 301 -129t108 -280h-166q0 42 -12.5 79.5t-39.5 71t-76 57.5t-115 33v-813q122 17 182.5 80t60.5 164h166q0 -171 -108 -280.5t-301 -129.5v-219h-166v222q-146 21 -254 112q-156 132 -156 357zM338 578 q0 -125 69 -201.5t175 -100.5v807q-107 -24 -175.5 -100t-68.5 -201v-202v-2z" />
<glyph unicode="&#xa3;" d="M168 0v166h82l123 33q35 9 60 43.5t9 101.5l-63 240h-174v166h129l-17 61q-61 220 18.5 368.5t262.5 194.5q184 54 326 -35t204 -309l-163 -43q-78 294 -324 232q-119 -31 -163 -122t-3 -241l29 -106h373v-166h-328l49 -183q0 -2 1 -6t1 -6q38 -126 -12 -223h565v-166 h-985z" />
<glyph unicode="&#xa5;" d="M158 1360h184l320 -522l319 522h184l-321 -524h289v-148h-388v-184h388v-148h-388v-356h-165v356h-383v148h383v184h-383v148h282z" />
<glyph unicode="&#xad;" d="M418 573v166h497v-166h-497z" />
<glyph unicode="&#xb1;" d="M197 211v166h387v334h-387v166h387v421h166v-421h385v-166h-385v-334h385v-166h-938z" />
<glyph unicode="&#xb4;" />
<glyph unicode="&#xbc;" d="M178 745q0 15 12 27t27 12h219v516h-219q-15 0 -27 12t-12 29t12 29t27 12h262q17 0 29 -12t12 -29v-557h103l317 576h203l-752 -1360h-203l390 702h-361q-15 0 -27 12.5t-12 30.5zM668 211l10 10l405 447q12 12 30 13t30 -11q18 -18 12 -39v-588q0 -18 -12 -30.5 t-27 -12.5q-19 0 -31 12t-12 31v107h-368l-11 2q2 -2 3 -2l-5 2q-12 4 -16 8q-22 22 -8 51zM797 231h276v304z" />
<glyph unicode="&#xbd;" d="M176 745q0 15 12 27t29 12h219v516h-219q-17 0 -29 12t-12 29t12 29t29 12h262q17 0 29 -12t12 -29v-557h103l317 576h203l-402 -725q67 45 152 45q99 0 172.5 -61t73.5 -164q6 -21 -11 -41l-337 -330h266v109q0 15 12 26.5t29 11.5t29 -11.5t12 -26.5v-150 q0 -19 -12 -31t-29 -12h-410l-10 2q-6 0 -10 4q-10 5 -11 6q-12 12 -11.5 30t11.5 30l400 389q-6 58 -49 98q-45 39 -115 39q-67 0 -115.5 -40.5t-48.5 -115.5q0 -17 -12 -29t-29 -12t-29 12t-12 29v23l-256 -465h-203l390 702h-361q-17 0 -29 12t-12 31z" />
<glyph unicode="&#xbe;" d="M178 903q0 17 12 29t27 12q19 0 31 -12t12 -29q0 -58 49 -88.5t115 -30.5q65 0 113.5 30.5t48.5 86.5q-3 41 -42.5 70.5t-109.5 29.5h-67q-17 0 -29 12t-12 29t12 29t29 12h67q72 0 112 33t40 74q-3 49 -45 78q-50 32 -119 32q-65 0 -113.5 -30t-48.5 -86q0 -19 -12 -31 t-31 -12q-15 0 -27 12.5t-12 30.5q0 93 73 145.5t171 52.5h10h2q109 0 172.5 -57t63.5 -133v-4v-4v-4q-6 -85 -84 -138q77 -50 84 -135v-4v-4v-4q0 -19 -2 -29l272 494h203l-752 -1360h-203l422 764q-65 -62 -176 -62h-2h-8q-96 0 -166 48q-80 53 -80 153zM668 211l10 10 l405 447q12 12 30 13t30 -11q18 -18 12 -39v-588q0 -18 -12 -30.5t-27 -12.5q-19 0 -31 12t-12 31v107h-368l-11 2q2 -2 3 -2l-5 2q-12 4 -16 8q-22 22 -8 51zM797 231h276v304z" />
<glyph unicode="&#xc4;" d="M86 0l37 104q0 9 4 13l4 16l449 1313l22 65h129l23 -65l448 -1313l45 -133h-186l-37 113l-47 135h-621l-47 -135l-37 -113h-186zM332 1665v240h241v-240h-241zM422 432h491l-245 709zM760 1665v240h241v-240h-241z" />
<glyph unicode="&#xd6;" d="M172 680q0 123 18 224t47.5 170t71.5 122t85 83t94 49t92.5 25.5t85.5 6.5q43 0 84.5 -6.5t92 -25.5t93.5 -49t85 -83t71 -122t47 -170t18 -224t-18 -224t-47 -170t-71 -122t-85 -83t-93.5 -49t-92 -25.5t-84.5 -6.5q-44 0 -85.5 6.5t-92.5 25.5t-94 49t-85 83t-71.5 122 t-47.5 170t-18 224zM338 680q0 -290 100 -414q78 -100 228 -100q147 0 225 100q100 124 100 414t-100 416q-79 98 -225 98q-149 0 -228 -98q-100 -126 -100 -416zM365 1499v215h217v-215h-217zM750 1499v215h219v-215h-219z" />
<glyph unicode="&#xd7;" d="M250 412l299 299l-299 297l117 118l299 -299l299 299l116 -118l-297 -297l297 -299l-116 -119l-299 299l-299 -299z" />
<glyph unicode="&#xdc;" d="M174 444v11v905h166v-885q0 -77 28 -137.5t74.5 -97t103.5 -55.5t120 -19t120.5 19t104.5 55.5t74.5 97t27.5 137.5v885h166v-1360h-166v111q-135 -111 -327 -111h-11q-187 3 -325 119q-144 123 -156 325zM365 1499v215h219v-215h-219zM750 1499v215h219v-215h-219z" />
<glyph unicode="&#xe0;" horiz-adv-x="1024" />
<glyph unicode="&#xed;" horiz-adv-x="1239" d="M72 92q0 38 27 65t65 27h362v828h-362q-38 0 -65 27t-27 65t27 65t65 27h454q38 0 65.5 -27t27.5 -65v-920h364q38 0 65 -27t27 -65t-27 -65t-65 -27h-911q-38 0 -65 27t-27 65z" />
<glyph unicode="&#xf6;" d="M172 473v133v4q1 110 44 201t112.5 148t156 87.5t179.5 30.5q94 0 181.5 -31t157.5 -88.5t112 -149t42 -202.5v-133q0 -113 -42 -204.5t-112 -149t-157 -88.5t-182 -31q-94 0 -181 31t-157 88.5t-112 149t-42 204.5zM338 473q0 -76 28 -136.5t74.5 -96.5t103.5 -55 t120 -19q142 0 234.5 85.5t92.5 221.5v129q0 136 -92.5 222.5t-234.5 86.5q-63 0 -120 -19t-103.5 -55.5t-74.5 -97t-28 -137.5v-129zM365 1145v215h217v-215h-217zM750 1145v215h219v-215h-219z" />
<glyph unicode="&#xf7;" d="M197 612v166h938v-166h-938zM510 301q0 64 47 109t109 45q65 0 110 -45t45 -109q0 -63 -45.5 -109.5t-109.5 -46.5q-62 0 -109 46.5t-47 109.5zM510 1083q0 64 47 109t109 45q65 0 110 -45t45 -109q0 -62 -45.5 -108.5t-109.5 -46.5q-62 0 -109 47t-47 108z" />
<glyph unicode="&#xfc;" d="M174 473v604h166v-604q0 -76 28 -136.5t74.5 -96.5t103.5 -55t120 -19q142 0 234.5 85.5t92.5 221.5v604h166v-1077h-166v111q-135 -111 -327 -111q-94 0 -181 31t-157 88.5t-112 149t-42 204.5zM365 1145v215h219v-215h-219zM750 1145v215h219v-215h-219z" />
<glyph unicode="&#xff;" d="M172 788v289h166v-286l328 -547l325 547v286h166v-307q0 -26 -14 -43l-2 -6l-393 -660v-124v-5q-1 -83 -7.5 -137.5t-27.5 -109.5t-57.5 -86t-100 -50.5t-154.5 -19.5h-82v166h82q43 0 71.5 4t50 18.5t32.5 32t17.5 54.5t8 75.5t1.5 104.5v77l-394 660q-23 25 -16 67z M365 1145v215h217v-215h-217zM750 1145v215h219v-215h-219z" />
<glyph unicode="&#x2000;" horiz-adv-x="952" />
<glyph unicode="&#x2001;" horiz-adv-x="1905" />
<glyph unicode="&#x2002;" horiz-adv-x="952" />
<glyph unicode="&#x2003;" horiz-adv-x="1905" />
<glyph unicode="&#x2004;" horiz-adv-x="635" />
<glyph unicode="&#x2005;" horiz-adv-x="476" />
<glyph unicode="&#x2006;" horiz-adv-x="317" />
<glyph unicode="&#x2007;" horiz-adv-x="317" />
<glyph unicode="&#x2008;" horiz-adv-x="238" />
<glyph unicode="&#x2009;" horiz-adv-x="381" />
<glyph unicode="&#x200a;" horiz-adv-x="105" />
<glyph unicode="&#x2010;" d="M418 573v166h497v-166h-497z" />
<glyph unicode="&#x2011;" d="M418 573v166h497v-166h-497z" />
<glyph unicode="&#x2012;" d="M418 573v166h497v-166h-497z" />
<glyph unicode="&#x2013;" horiz-adv-x="1858" d="M418 573v166h1024v-166h-1024z" />
<glyph unicode="&#x2014;" d="M172 573v166h985v-166h-985z" />
<glyph unicode="&#x2018;" d="M524 1325v283h281v-283h-281z" />
<glyph unicode="&#x2019;" d="M524 1325v283h281v-283h-281z" />
<glyph unicode="&#x202f;" horiz-adv-x="381" />
<glyph unicode="&#x205f;" horiz-adv-x="476" />
<glyph unicode="&#x25fc;" horiz-adv-x="1075" d="M0 0v1075h1075v-1075h-1075z" />
<glyph unicode="&#xfb01;" d="M150 911v166h133q1 67 6 114t17.5 96t36.5 80.5t61.5 57.5t93.5 38t131 12h542v-166h-542q-113 0 -145 -43.5t-35 -188.5h364v-166h-364v-911h-166v911h-133zM1006 0v1077h165v-1077h-165z" />
<glyph unicode="&#xfb02;" d="M150 911v166l133 4q1 112 37.5 202t99 147t143.5 87.5t174 30.5q192 0 313 -122.5t121 -348.5v-1077h-165v1077q0 142 -66.5 223.5t-202.5 81.5q-128 0 -208 -77.5t-80 -227.5h364v-166h-364v-911h-166v911h-133z" />
</font>
</defs>
</svg>
