<?xml version="1.0" standalone="no"?>
<!DOCTYPE svg PUBLIC "-//W3C//DTD SVG 1.1//EN" "http://www.w3.org/Graphics/SVG/1.1/DTD/svg11.dtd" >
<svg xmlns="http://www.w3.org/2000/svg">
<metadata></metadata>
<defs>
<font id="20_dbregular" horiz-adv-x="1146" >
<font-face units-per-em="2048" ascent="1638" descent="-410" />
<missing-glyph horiz-adv-x="1228" />
<glyph horiz-adv-x="0" />
<glyph horiz-adv-x="682" />
<glyph unicode=" "  horiz-adv-x="1228" />
<glyph unicode="&#x09;" horiz-adv-x="1228" />
<glyph unicode="&#xa0;" horiz-adv-x="1228" />
<glyph unicode="!" d="M164 1638h819l-82 -1085h-655zM246 164v102q0 88 68 126t198 38h123q130 0 198 -38t68 -126v-102q0 -88 -68 -126t-198 -38h-123q-130 0 -198 38t-68 126z" />
<glyph unicode="&#x22;" horiz-adv-x="1351" d="M164 1638h450l-82 -737h-286zM737 1638h451l-82 -737h-287z" />
<glyph unicode="#" horiz-adv-x="2508" d="M20 0l185 492h-185v81h216l194 492h-244v82h275l184 491h819l-184 -491h205l184 491h819l-184 -491h184v-82h-215l-194 -492h243v-81h-274l-184 -492h-820l185 492h-205l-184 -492h-820zM1024 573h266l195 492h-266z" />
<glyph unicode="$" horiz-adv-x="2007" d="M82 1188q0 109 38.5 190.5t107 134.5t173 86t225.5 46.5t275 13.5h369v123h82v-123q105 -3 185 -17.5t154 -49.5t121 -90.5t75 -145t28 -209.5h-82q0 102 -25.5 177.5t-66.5 121.5t-105.5 75t-130.5 41t-153 15v-543q205 -89 291 -142q213 -129 264 -307q18 -63 18 -134 q0 -109 -38.5 -190.5t-107 -134.5t-173 -86t-225.5 -46.5t-275 -13.5h-369v-123h-82v123q-105 3 -185 17.5t-154 49.5t-121 90.5t-75 145t-28 209.5h82q0 -85 16.5 -152t49.5 -112.5t74.5 -77.5t98 -50.5t114 -27t128.5 -11.5v543q-207 90 -295 144q-214 132 -262 315 q-16 59 -16 125zM737 61q149 0 218 57.5t69 168.5q0 47 -21 87.5t-64 75t-88.5 60t-113.5 57.5v-506zM983 1352q0 -47 21 -87.5t64 -75t88.5 -61t113.5 -57.5v506q-150 0 -218.5 -57t-68.5 -168z" />
<glyph unicode="%" horiz-adv-x="1884" d="M102 1331q0 78 24 136.5t63.5 94.5t99 58t122.5 30.5t142 8.5t142 -8.5t122.5 -30.5t99 -58t63.5 -94.5t24 -136.5t-24 -136t-63.5 -94t-99 -58t-122.5 -30.5t-142 -8.5t-142 8.5t-122.5 30.5t-99 58t-63.5 94t-24 136zM205 0l1372 1638h102l-1372 -1638h-102zM512 1085 h82v492h-82v-492zM881 307q0 78 23.5 136.5t63.5 94.5t99 58t122 30.5t142 8.5t142 -8.5t122.5 -30.5t99 -58t63.5 -94.5t24 -136.5t-24 -136t-63.5 -94t-99 -58t-122.5 -30.5t-142 -8.5t-142 8.5t-122 30.5t-99 58t-63.5 94t-23.5 136zM1290 61h82v492h-82v-492z" />
<glyph unicode="&#x26;" horiz-adv-x="2560" d="M82 430q0 171 137.5 275.5t384.5 144.5v31q-237 31 -369.5 117.5t-132.5 209.5q0 120 71.5 208.5t201.5 140.5t296.5 77t372.5 25h185q139 0 247 -10t211.5 -38.5t171 -75.5t108 -124.5t40.5 -181.5h-82q0 72 -25 128.5t-74 94t-110 63t-143.5 38.5t-163 18.5t-180.5 5.5 h-185v-676h246v246h717v-246h369v-82h-369v-758q451 0 451 246h82q0 -164 -140 -245.5t-393 -81.5h-963q-146 0 -264 8t-230.5 26.5t-195 52t-145.5 82.5t-95 120t-32 161zM1044 61h494q-248 114 -248 431v327h-246v-758z" />
<glyph unicode="'" horiz-adv-x="860" d="M164 1638h532l-82 -737h-368z" />
<glyph unicode="(" horiz-adv-x="1372" d="M102 819q0 145 15 267.5t42 217.5t68 172t89 132.5t110 97t125.5 67.5t140.5 42t151 22t161 6h368v-82h-368v-1884h368v-82h-368q-87 0 -161 6t-151 22t-140.5 42t-125.5 67.5t-110 97t-89 132.5t-68 172t-42 217.5t-15 267.5z" />
<glyph unicode=")" horiz-adv-x="1372" d="M0 -123h369v1884h-369v82h369q113 0 205 -10t188 -39t169 -76.5t139 -126t108.5 -184t67 -254.5t24.5 -334t-24.5 -334t-67 -254.5t-108.5 -184t-139 -126t-169 -76.5t-188 -39t-205 -10h-369v82z" />
<glyph unicode="+" d="M61 717v82h471v471h82v-471h471v-82h-471v-471h-82v471h-471z" />
<glyph unicode="," horiz-adv-x="942" d="M143 164v102q0 88 68.5 126t198.5 38h122q130 0 198.5 -38t68.5 -126v-102q0 -243 -75.5 -367.5t-252.5 -124.5v82q116 0 168 68t68 209q-48 -31 -175 -31h-122q-130 0 -198.5 38t-68.5 126z" />
<glyph unicode="-" d="M61 717v82h1024v-82h-1024z" />
<glyph unicode="." horiz-adv-x="983" d="M164 164v102q0 88 68 126t198 38h123q130 0 198 -38t68 -126v-102q0 -88 -68 -126t-198 -38h-123q-130 0 -198 38t-68 126z" />
<glyph unicode="/" horiz-adv-x="808" d="M0 -102l717 1843h92l-717 -1843h-92z" />
<glyph unicode="0" horiz-adv-x="2334" d="M102 819q0 146 24.5 265.5t67.5 205.5t108.5 151.5t139.5 106.5t168.5 66t188.5 35t205 10h327q111 0 205 -10t188.5 -35t168.5 -66t139 -106.5t108 -151.5t67.5 -205.5t24.5 -265.5t-24.5 -265.5t-67.5 -205.5t-108 -151t-139 -106t-168.5 -66t-188 -35t-205.5 -10h-327 q-112 0 -205.5 10t-188 35t-168.5 66t-139.5 106t-108.5 151t-67.5 205.5t-24.5 265.5zM963 61h409v1516h-409v-1516z" />
<glyph unicode="1" horiz-adv-x="1261" d="M20 1231l484 407h594v-1638h-819v1339l-205 -172z" />
<glyph unicode="2" horiz-adv-x="2109" d="M102 1147q0 92 16.5 166.5t45 127.5t72.5 92t92.5 63t111.5 38.5t123 19.5t133 5h430q173 0 305 -13.5t243.5 -46t182.5 -86t110.5 -135t39.5 -190.5q0 -95 -31.5 -183.5t-85 -159.5t-122.5 -137t-145.5 -121.5t-153 -108t-145.5 -101.5t-122.5 -95.5t-85 -98 t-31.5 -101.5h881v-82h-1843v164q0 102 33.5 196t90.5 169t131 144t155.5 126.5t162.5 111t155 103.5t131 97t90.5 98.5t33.5 101.5q0 65 -18.5 111.5t-63 82.5t-126.5 54t-202 18q-60 0 -109.5 -4t-104 -15.5t-96 -30.5t-81 -52t-65 -77t-41 -108t-15.5 -143h-82z" />
<glyph unicode="3" horiz-adv-x="2170" d="M82 492h82q0 -79 20 -143t53 -108.5t85 -77t108.5 -52t131 -31t143.5 -15.5t155 -4h287v1516h-287q-86 0 -155 -4t-143.5 -15.5t-130.5 -30.5t-108.5 -51.5t-85.5 -77t-53 -108.5t-20 -143h-82q0 92 21 166.5t57.5 127.5t93 92t119.5 63t145.5 38.5t162.5 19.5t179 5h287 q206 0 372.5 -25t296.5 -77t201.5 -140.5t71.5 -208.5q0 -123 -132.5 -209.5t-369.5 -117.5v-31q247 -40 384.5 -144.5t137.5 -275.5q0 -90 -32 -161t-95 -120t-145.5 -82.5t-195 -52t-230.5 -26.5t-264 -8h-287q-99 0 -179 5t-162.5 19.5t-145.5 38.5t-119.5 63t-93 92 t-57.5 127.5t-21 166.5z" />
<glyph unicode="4" horiz-adv-x="2027" d="M0 369v82l1065 1187h778v-1187h185v-82h-185v-369h-819v369h-1024zM113 451h911v1013z" />
<glyph unicode="5" horiz-adv-x="2170" d="M102 492h82q0 -79 20 -143t53 -108.5t85.5 -77t108.5 -52t131 -31t144 -15.5t155 -4h327v840h-1044v737h1782v-82h-1004v-573h246q152 0 265 -8t217 -28.5t174 -57t122.5 -91.5t77 -134t24.5 -183q0 -81 -18 -148t-54 -116.5t-82 -87.5t-110 -63.5t-130 -43t-150 -26.5 t-162 -12.5t-174 -3.5h-307q-99 0 -179 5t-163 19.5t-146 38.5t-119.5 63t-93 92t-57.5 127.5t-21 166.5z" />
<glyph unicode="6" horiz-adv-x="2293" d="M102 799q0 146 24.5 265.5t68 205.5t109.5 151t141.5 106t172 66t193.5 35t213 10h328q139 0 247 -10t211.5 -38.5t171 -75.5t108 -124.5t40.5 -181.5h-82q0 72 -25 128.5t-74 94t-110 63t-143.5 38.5t-163 18.5t-180.5 5.5h-348v-593h307q138 0 242.5 -6t200 -20 t162.5 -38.5t121.5 -61.5t87 -89t49.5 -120.5t17 -156.5t-17 -156.5t-49.5 -120.5t-87 -88.5t-121.5 -61t-162.5 -39t-200 -20t-242.5 -5.5h-287q-116 0 -213 9.5t-193.5 34.5t-172 65t-141.5 104t-109.5 148t-68 200t-24.5 258zM1004 61h327v820h-327v-820z" />
<glyph unicode="7" horiz-adv-x="1812" d="M20 1556v82h1772v-82l-768 -1556h-911l768 1556h-861z" />
<glyph unicode="8" horiz-adv-x="2293" d="M61 451q0 105 64 188t170 134t248 77v31q-171 33 -285.5 126t-114.5 222q0 96 70.5 175.5t188.5 129.5t268 77t313 27h328q163 0 312.5 -27t267.5 -77t188.5 -129.5t70.5 -175.5q0 -129 -114.5 -222t-284.5 -126v-31q142 -26 247.5 -77t169.5 -134t64 -188 q0 -112 -71.5 -199.5t-197.5 -141.5t-291.5 -82t-360.5 -28h-328q-195 0 -360.5 28t-292 82t-198 141.5t-71.5 199.5zM983 82h328v1474h-328v-1474z" />
<glyph unicode="9" horiz-adv-x="2293" d="M102 1147q0 77 12.5 139t39.5 111t64.5 85.5t94 63.5t121.5 44.5t152.5 28t182 15t214.5 4.5h287q116 0 213 -9.5t193 -34.5t171.5 -65t141.5 -104t109.5 -148t68 -200t24.5 -258q0 -146 -24.5 -265.5t-68 -205.5t-109.5 -151t-141 -106t-172 -66t-193.5 -35t-212.5 -10 h-328q-139 0 -247 10t-211.5 38.5t-171 75.5t-108 124.5t-40.5 181.5h82q0 -72 25 -128.5t74 -94t110 -63t143.5 -39t163 -19t180.5 -5.5h348v594h-307q-120 0 -214.5 4.5t-182 15t-152.5 28t-121.5 44.5t-94 64t-64.5 86t-39.5 111t-12.5 139zM963 737h327v819h-327v-819z " />
<glyph unicode=":" horiz-adv-x="942" d="M143 164v102q0 88 68.5 126t198.5 38h122q130 0 198.5 -38t68.5 -126v-102q0 -88 -68.5 -126t-198.5 -38h-122q-130 0 -198.5 38t-68.5 126zM143 963v102q0 88 68.5 126t198.5 38h122q130 0 198.5 -38t68.5 -126v-102q0 -88 -68.5 -126t-198.5 -38h-122q-130 0 -198.5 38 t-68.5 126z" />
<glyph unicode=";" horiz-adv-x="983" d="M164 164v102q0 88 68 126t198 38h123q130 0 198 -38t68 -126v-102q0 -243 -75 -367.5t-252 -124.5v82q116 0 167.5 68t67.5 209q-48 -31 -174 -31h-123q-130 0 -198 38t-68 126zM164 963v102q0 88 68 126t198 38h123q130 0 198 -38t68 -126v-102q0 -88 -68 -126t-198 -38 h-123q-130 0 -198 38t-68 126z" />
<glyph unicode="&#x3c;" horiz-adv-x="962" d="M61 573v82l799 461l41 -72l-747 -430l747 -430l-41 -71z" />
<glyph unicode="=" d="M61 512v82h1024v-82h-1024zM61 922v82h1024v-82h-1024z" />
<glyph unicode="&#x3e;" horiz-adv-x="962" d="M61 184l748 430l-748 430l41 72l799 -461v-82l-799 -460z" />
<glyph unicode="?" horiz-adv-x="2007" d="M41 1147q0 92 16.5 166.5t45 127.5t72.5 92t92.5 63t111.5 38.5t123 19.5t133 5h430q145 0 258 -8t215.5 -27t175 -52.5t126.5 -82.5t80 -119.5t26 -161.5q0 -96 -41.5 -170t-107 -120t-145.5 -81.5t-160 -63t-145.5 -56t-107 -70t-41.5 -94.5h-655v82q0 96 27.5 171.5 t72 123t98 86t106.5 70t97.5 64t72 78t27.5 103.5q0 57 -18.5 99.5t-62.5 77t-126.5 52t-201.5 17.5q-60 0 -109.5 -4t-104 -15.5t-96 -30.5t-81 -52t-65 -77t-41 -108t-15.5 -143h-82zM543 164v102q0 88 68 126t198 38h123q130 0 198 -38t68 -126v-102q0 -88 -68 -126 t-198 -38h-123q-130 0 -198 38t-68 126z" />
<glyph unicode="@" horiz-adv-x="3399" d="M102 819q0 142 24.5 258t67.5 200t108.5 148t139.5 104t168.5 65t188.5 34.5t205 9.5h1392q155 0 283.5 -18.5t245.5 -65.5t197 -121t127.5 -191t47.5 -269t-47.5 -269t-127.5 -191t-197 -121.5t-245.5 -66t-283.5 -18.5h-584l-20 62h-10q-142 -72 -318 -72 q-68 0 -123 10.5t-112.5 44t-96 88.5t-63.5 152t-25 227t25 227t63.5 152t96 88.5t112.5 44t123 10.5q178 0 318 -71h10l20 61h502v-942h164v1167h-1556v-1474h1474q147 0 266 11t219 36t155.5 70t55.5 108h82q0 -307 -778 -307h-1392q-111 0 -205 9.5t-188.5 34.5 t-168.5 65t-139.5 104t-108.5 148t-67.5 200t-24.5 258zM1618 399q95 0 164 52v737q-67 51 -164 51v-840z" />
<glyph unicode="A" horiz-adv-x="2289" d="M41 0l694 1638h828l686 -1638h-881l-623 1454l-614 -1454h-90z" />
<glyph unicode="B" horiz-adv-x="2334" d="M164 0v1638h1147q178 0 336.5 -27t280 -77.5t192.5 -129t71 -175.5q0 -132 -121.5 -224t-318.5 -124v-31q246 -40 384 -140.5t138 -258.5q0 -112 -72 -199.5t-202 -142t-304 -82t-384 -27.5h-1147zM983 82h328v1474h-328v-1474z" />
<glyph unicode="C" horiz-adv-x="2232" d="M102 819q0 146 24.5 265.5t67.5 205.5t108.5 151.5t139.5 106.5t168.5 66t188.5 35t205 10h368q99 0 179 -5t162.5 -19.5t145.5 -38.5t119.5 -63t93 -92t57.5 -127.5t21 -166.5h-82q0 79 -20 143t-53 108.5t-85.5 77t-108.5 51.5t-130.5 30.5t-143.5 15.5t-155 4h-368 v-1516h368q86 0 155 4t143.5 15.5t131 31t108.5 52t85 77t53 108.5t20 143h82q0 -92 -21 -166.5t-57.5 -127.5t-93 -92t-119.5 -63t-145.5 -38.5t-162.5 -19.5t-179 -5h-368q-112 0 -205.5 10t-188 35t-168.5 66t-139.5 106t-108.5 151t-67.5 205.5t-24.5 265.5z" />
<glyph unicode="D" horiz-adv-x="2314" d="M164 0v1638h1147q111 0 205 -9.5t188 -34.5t168.5 -65t139.5 -104t108 -148t67.5 -200t24.5 -258t-24.5 -258t-67.5 -200t-108 -148t-139.5 -104t-168.5 -65t-188 -34.5t-205 -9.5h-1147zM983 82h348v1474h-348v-1474z" />
<glyph unicode="E" horiz-adv-x="1822" d="M164 0v1638h1577v-82h-758v-655h573v-82h-573v-737h799v-82h-1618z" />
<glyph unicode="F" horiz-adv-x="1761" d="M164 0v1638h1577v-82h-758v-716h655v-82h-655v-758h-819z" />
<glyph unicode="G" horiz-adv-x="2232" d="M102 819q0 146 24.5 265.5t67.5 205.5t108.5 151.5t139.5 106.5t168.5 66t188.5 35t205 10h368q99 0 179 -5t162.5 -19.5t145.5 -38.5t119.5 -63t93 -92t57.5 -127.5t21 -166.5h-82q0 79 -20 143t-53 108.5t-85.5 77t-108.5 51.5t-130.5 30.5t-143.5 15.5t-155 4h-368 v-1516h368q86 0 155 4t143.5 15.5t131 31t108.5 52t85 77t53 108.5t20 143v245h-696v82h778v-327q0 -92 -21 -166.5t-57.5 -127.5t-93 -92t-119.5 -63t-145.5 -38.5t-162.5 -19.5t-179 -5h-368q-112 0 -205.5 10t-188 35t-168.5 66t-139.5 106t-108.5 151t-67.5 205.5 t-24.5 265.5z" />
<glyph unicode="H" horiz-adv-x="2271" d="M164 0v1638h778v-778h387v778h778v-1638h-778v778h-387v-778h-778z" />
<glyph unicode="I" d="M164 0v1638h819v-1638h-819z" />
<glyph unicode="J" horiz-adv-x="1638" d="M20 492h82q0 -75 19.5 -135.5t51.5 -102.5t79.5 -73.5t97.5 -50t112 -29.5t116.5 -15t117.5 -4v1556h820v-1024q0 -136 -46 -244t-120 -176t-175 -113t-204 -63t-213 -18q-90 0 -164 5t-152 19t-138.5 37t-115 61t-90.5 88.5t-57 122t-21 159.5z" />
<glyph unicode="K" horiz-adv-x="2406" d="M164 0v1638h819v-819l983 819h133l-461 -378v-21l768 -1239h-952l-430 748l-41 -31v-717h-819z" />
<glyph unicode="L" horiz-adv-x="1699" d="M164 0v1638h819v-1556h696v-82h-1515z" />
<glyph unicode="M" horiz-adv-x="2867" d="M164 0v1638h860l522 -870l338 870h819v-1638h-819v1413l-553 -1413h-276l-809 1331v-1331h-82z" />
<glyph unicode="N" horiz-adv-x="2068" d="M164 0v1638h850l809 -1331v1331h82v-1638h-850l-809 1331v-1331h-82z" />
<glyph unicode="O" horiz-adv-x="2334" d="M102 819q0 146 24.5 265.5t67.5 205.5t108.5 151.5t139.5 106.5t168.5 66t188.5 35t205 10h327q111 0 205 -10t188.5 -35t168.5 -66t139 -106.5t108 -151.5t67.5 -205.5t24.5 -265.5t-24.5 -265.5t-67.5 -205.5t-108 -151t-139 -106t-168.5 -66t-188 -35t-205.5 -10h-327 q-112 0 -205.5 10t-188 35t-168.5 66t-139.5 106t-108.5 151t-67.5 205.5t-24.5 265.5zM963 61h409v1516h-409v-1516z" />
<glyph unicode="P" horiz-adv-x="2273" d="M164 0v1638h1147q158 0 293 -17.5t252 -58t199.5 -101t129.5 -151t47 -204.5t-47 -204.5t-129.5 -151.5t-199.5 -101t-252 -58t-293 -18h-328v-573h-819zM983 655h328v901h-328v-901z" />
<glyph unicode="Q" horiz-adv-x="2334" d="M102 819q0 146 24.5 265.5t67.5 205.5t108.5 151.5t139.5 106.5t168.5 66t188.5 35t205 10h327q111 0 205 -10t188.5 -35t168.5 -66t139 -106.5t108 -151.5t67.5 -205.5t24.5 -265.5q0 -157 -33.5 -275.5t-102.5 -203.5t-165.5 -142t-230.5 -96v-20h491v-82h-1187 q-111 0 -205 9.5t-188.5 34.5t-168.5 65t-139.5 104t-108.5 148t-67.5 200t-24.5 258zM963 82h409v1495h-409v-1495z" />
<glyph unicode="R" horiz-adv-x="2293" d="M164 0v1638h1126q157 0 293 -17.5t252.5 -55.5t199.5 -94.5t130 -139t47 -184.5q0 -147 -92 -249t-246 -150v-21l399 -727h-911l-358 655h-21v-655h-819zM983 737h307v819h-307v-819z" />
<glyph unicode="S" horiz-adv-x="2007" d="M82 1188q0 109 38.5 190.5t107 134.5t173 86t225.5 46.5t275 13.5h369q73 0 133 -5t123 -19.5t111.5 -38.5t92.5 -63t72.5 -92t45 -127.5t16.5 -166.5h-82q0 79 -15.5 143t-41 108t-65 77t-81 52t-96 30.5t-104 15.5t-109.5 4q-150 0 -218.5 -57t-68.5 -168 q0 -57 32 -105.5t86.5 -84.5t125.5 -70t149 -68t156 -70.5t149 -85t125.5 -105.5t86.5 -137t32 -175q0 -109 -38.5 -190.5t-107 -134.5t-173 -86t-225.5 -46.5t-275 -13.5h-369q-85 0 -152.5 5t-136.5 19.5t-120.5 38.5t-97.5 63t-75 92t-46 127t-17 167h82 q0 -80 15.5 -143.5t42 -108t68 -77t86.5 -52t105.5 -31t117 -15.5t128.5 -4q149 0 218 57.5t69 168.5q0 57 -32 105.5t-86.5 84.5t-125.5 70t-149 68t-156 70.5t-149 85t-125.5 105.5t-86.5 137t-32 175z" />
<glyph unicode="T" horiz-adv-x="1925" d="M20 1556v82h1885v-82h-533v-1556h-819v1556h-533z" />
<glyph unicode="U" horiz-adv-x="2007" d="M123 594v1044h819v-1577h164q88 0 155.5 4t143 17.5t131 36.5t108 63.5t85.5 95.5t53 135t20 181v1044h82v-1044q0 -114 -21 -205t-57 -154.5t-93.5 -110t-119 -74t-145.5 -43.5t-162.5 -21.5t-179.5 -5.5h-164q-129 0 -243 18t-221.5 63t-184.5 113t-123.5 175.5 t-46.5 244.5z" />
<glyph unicode="V" horiz-adv-x="2088" d="M41 1638h881l520 -1364l524 1364h82l-625 -1638h-757z" />
<glyph unicode="W" horiz-adv-x="2877" d="M41 1638h840l323 -1400l416 1400h287l524 -1392l324 1392h81l-378 -1638h-807l-244 637l-188 -637h-799z" />
<glyph unicode="X" horiz-adv-x="1894" d="M0 1638h952l379 -665l389 665h92l-430 -747l512 -891h-952l-379 666l-389 -666h-92l430 748z" />
<glyph unicode="Y" horiz-adv-x="1935" d="M20 1638h932l441 -747l430 747h92l-481 -829v-809h-820v584z" />
<glyph unicode="Z" horiz-adv-x="1802" d="M82 0v123l725 1433h-725v82h1638v-102l-737 -1454h737v-82h-1638z" />
<glyph unicode="[" horiz-adv-x="1351" d="M164 -205v2048h1188v-82h-369v-1884h369v-82h-1188z" />
<glyph unicode="\" horiz-adv-x="1587" d="M0 1741h881l706 -1843h-880z" />
<glyph unicode="]" horiz-adv-x="1351" d="M0 -123h369v1884h-369v82h1188v-2048h-1188v82z" />
<glyph unicode="^" horiz-adv-x="819" d="M41 1085l328 553h82l327 -553h-102l-266 461l-267 -461h-102z" />
<glyph unicode="_" horiz-adv-x="1228" d="M0 0h1229v-82h-1229v82z" />
<glyph unicode="`" horiz-adv-x="737" d="M61 1536l410 143l205 -716l-307 -113z" />
<glyph unicode="a" horiz-adv-x="1945" d="M82 358q0 80 34 145t89.5 108t129 72t148.5 41.5t152 12.5h450v430h-307q-450 0 -450 -245h-82q0 165 139.5 246t392.5 81h307q133 0 240 -15.5t197.5 -52.5t151 -95.5t94.5 -146t34 -202.5v-737h-676l-20 82h-21q-204 -102 -450 -102q-77 0 -152 12.5t-148.5 41.5 t-129 71.5t-89.5 107.5t-34 145zM860 82q126 15 225 82v491h-225v-573z" />
<glyph unicode="b" horiz-adv-x="2027" d="M164 0v1638h717v-409h327q97 0 175.5 -7t154.5 -25.5t133 -49t106.5 -78.5t81 -113t49 -153.5t17.5 -198.5q0 -624 -594 -624q-246 0 -450 102h-21l-20 -82h-676zM881 174q50 -34 132 -64.5t154 -37.5v1075h-286v-973z" />
<glyph unicode="c" horiz-adv-x="1822" d="M102 614q0 126 22.5 224.5t68 168t106 117t144 75t173.5 39t203 11.5h410q127 0 222.5 -20.5t166 -66t107 -121t36.5 -181.5h-82q0 90 -32 151.5t-94.5 94.5t-140 47t-183.5 14h-369v-1106h369q106 0 183.5 14t140 47.5t94.5 95t32 151.5h82q0 -106 -36.5 -181.5 t-107 -121t-166 -66t-222.5 -20.5h-410q-136 0 -240.5 16.5t-197 59.5t-152 113.5t-93.5 182t-34 262.5z" />
<glyph unicode="d" horiz-adv-x="2027" d="M102 604q0 110 17.5 198.5t49 153.5t81 113t106.5 78.5t133 49t154.5 25.5t175.5 7h328v409h717v-1638h-676l-21 82h-20q-204 -102 -451 -102q-594 0 -594 624zM860 72q72 7 154.5 38t132.5 64v973h-287v-1075z" />
<glyph unicode="e" horiz-adv-x="1822" d="M102 614q0 152 35 262.5t99.5 182t168 114t227 59.5t290.5 17q162 0 274.5 -10t209.5 -38t156.5 -75t102 -123.5t59.5 -180.5t17 -249h-881v-512h328q106 0 183.5 14t140 47.5t94.5 95t32 151.5h82q0 -106 -36.5 -181.5t-107 -121t-166 -66t-222.5 -20.5h-369 q-136 0 -240.5 16.5t-197 59.5t-152 113.5t-93.5 182t-34 262.5zM860 655h799q0 86 -8.5 151.5t-30.5 118.5t-51.5 90t-79.5 65t-106 44t-140 26t-172 13.5t-211 3.5v-512z" />
<glyph unicode="f" horiz-adv-x="1351" d="M164 0v1147q0 115 34 202.5t94.5 146t151 95.5t197.5 52.5t240 15.5q253 0 392.5 -81.5t139.5 -246.5h-82q0 246 -450 246v-614h368v-82h-368v-881h-717z" />
<glyph unicode="g" horiz-adv-x="1986" d="M102 614q0 109 17.5 195.5t49.5 150.5t83 111t111.5 77t141 48.5t165 25.5t190.5 7h1024v-82h-205v-21q107 -69 166.5 -177t59.5 -232q0 -91 -17.5 -163.5t-49.5 -126t-83.5 -92.5t-111 -64t-140.5 -40t-165 -20.5t-191 -5.5h-307v-123h553q80 0 142 -6t122 -22.5 t99 -44.5t63 -74t24 -109t-24 -109t-63 -74t-99 -44.5t-122 -22.5t-142 -6h-656q-253 0 -392.5 81.5t-139.5 246.5h82q0 -246 450 -246h430v348h-307q-106 0 -190.5 7t-165.5 25t-141 48t-111 77t-83 111t-49.5 150.5t-17.5 195.5zM840 287h327v860h-327v-860z" />
<glyph unicode="h" horiz-adv-x="2027" d="M164 0v1638h717v-409h327q121 0 220 -13t185.5 -45t145 -81.5t92 -126t33.5 -175.5v-788h-717v1147h-286v-1147h-717z" />
<glyph unicode="i" horiz-adv-x="1044" d="M164 0v1229h717v-1229h-717zM164 1475v81h717v-81h-717z" />
<glyph unicode="j" horiz-adv-x="1064" d="M-348 -102h82q0 -246 450 -246v1577h717v-1147q0 -115 -34 -202.5t-94.5 -146t-151 -95.5t-197.5 -52.5t-240 -15.5q-253 0 -392.5 81.5t-139.5 246.5zM184 1475v81h717v-81h-717z" />
<glyph unicode="k" horiz-adv-x="2007" d="M164 0v1638h717v-921l788 512h154l-328 -215v-21l492 -993h-809l-297 614v-614h-717z" />
<glyph unicode="l" horiz-adv-x="1044" d="M164 0v1638h717v-1638h-717z" />
<glyph unicode="m" horiz-adv-x="2826" d="M164 0v1229h676l20 -82h21q204 102 348 102q263 0 399 -123q74 49 215 86t287 37q83 0 160 -15t149.5 -50t126 -87t85.5 -131.5t32 -177.5v-788h-717v1157q-114 -16 -205 -59v-1098h-676v1147q-51 -7 -111 -32t-93 -50v-1065h-717z" />
<glyph unicode="n" horiz-adv-x="2027" d="M164 0v1229h676l20 -82h21q204 102 450 102q83 0 160 -15t149.5 -50t126 -87t85.5 -131.5t32 -177.5v-788h-717v1157q-72 -7 -154 -37.5t-132 -64.5v-1055h-717z" />
<glyph unicode="o" horiz-adv-x="1966" d="M102 614q0 151 34.5 262.5t96 182.5t158.5 114t208.5 59.5t260.5 16.5h246q149 0 260.5 -16.5t208.5 -59.5t158.5 -114t96 -182.5t34.5 -262.5q0 -113 -17.5 -202.5t-49.5 -155.5t-83.5 -114.5t-111 -79.5t-140.5 -49.5t-165 -25.5t-191 -7h-246q-107 0 -191 7t-165 25.5 t-140.5 49.5t-111 79.5t-83.5 114.5t-49.5 155.5t-17.5 202.5zM840 61h286v1106h-286v-1106z" />
<glyph unicode="p" horiz-adv-x="2027" d="M164 -410v1639h676l20 -82h21q204 102 450 102q594 0 594 -624q0 -110 -17.5 -198.5t-49 -153.5t-81 -113t-106.5 -78.5t-133 -49t-154.5 -25.5t-175.5 -7h-327v-410h-717zM881 82h286v1075q-72 -7 -154 -37.5t-132 -64.5v-973z" />
<glyph unicode="q" horiz-adv-x="2027" d="M102 625q0 624 594 624q247 0 451 -102h20l21 82h676v-1639h-717v410h-328q-97 0 -175.5 7t-154.5 25.5t-133 49t-106.5 78.5t-81 113t-49 153.5t-17.5 198.5zM860 82h287v973q-50 33 -132.5 64t-154.5 38v-1075z" />
<glyph unicode="r" horiz-adv-x="1576" d="M164 0v1229h676l20 -82h21q144 102 327 102q369 0 369 -225h-82q0 73 -78 108t-209 35q-195 0 -327 -112v-1055h-717z" />
<glyph unicode="s" horiz-adv-x="1740" d="M82 328h82q0 -74 31 -128t85 -83t116.5 -42.5t135.5 -13.5q163 0 235.5 42t72.5 122q0 58 -42 106t-108.5 82.5t-147.5 67.5t-162 69.5t-147.5 80t-108.5 107.5t-42 143q0 86 25.5 148.5t74.5 105t130 67.5t183 36t242 11h451q87 0 162.5 -20.5t136.5 -61t96 -109 t35 -157.5h-82q0 59 -20.5 106t-54.5 76.5t-80 49t-93.5 27t-99.5 7.5q-287 0 -287 -163q0 -58 42 -106t108.5 -82.5t147.5 -67.5t162 -69.5t147.5 -80t108.5 -107.5t42 -143q0 -86 -25.5 -148.5t-74.5 -105t-130 -67.5t-183 -36t-242 -11h-472q-95 0 -174.5 20t-142 61 t-98 109.5t-35.5 157.5z" />
<glyph unicode="t" horiz-adv-x="1413" d="M143 492v1146h717v-594h369v-81h-369v-902q451 0 451 246h82q0 -164 -140 -245.5t-393 -81.5q-133 0 -240 15.5t-197.5 52.5t-151 95.5t-94.5 146t-34 202.5z" />
<glyph unicode="u" horiz-adv-x="2048" d="M164 440v789h717v-1157q72 7 154 37.5t132 64.5v1055h717v-1229h-676l-20 82h-21q-204 -102 -450 -102q-83 0 -160 15t-149.5 50t-126 86.5t-85.5 131t-32 177.5z" />
<glyph unicode="v" horiz-adv-x="1638" d="M20 1229h768l369 -1024l369 1024h92l-451 -1229h-696z" />
<glyph unicode="w" horiz-adv-x="2519" d="M20 1229h758l297 -1024l338 1024h266l451 -932l276 932h93l-369 -1229h-666l-225 461l-154 -461h-696z" />
<glyph unicode="x" horiz-adv-x="1658" d="M0 1229h860l318 -492l338 492h92l-369 -574l420 -655h-860l-318 492l-338 -492h-92l369 573z" />
<glyph unicode="y" horiz-adv-x="1699" d="M20 1229h758l420 -1014l389 1014h92l-491 -1290q-35 -91 -64 -148.5t-73 -101.5t-84.5 -65.5t-119.5 -34.5t-154.5 -16t-211.5 -3v82q83 0 137.5 1.5t112 6t94 13t75 23.5t63 35.5t50 50.5t44.5 68t39 89l30 81h-594z" />
<glyph unicode="z" horiz-adv-x="1536" d="M82 0v133l573 1014h-573v82h1372v-133l-573 -1014h573v-82h-1372z" />
<glyph unicode="{" horiz-adv-x="1464" d="M61 778v82q80 36 107 132t27 288q0 123 47 219.5t128 160.5t197 105.5t246 59.5t283 18h368v-82h-368v-512q0 -171 -138 -275.5t-385 -144.5v-20q247 -40 385 -144.5t138 -275.5v-512h368v-82h-368q-153 0 -283 18t-246 59.5t-197 105.5t-128 160.5t-47 219.5 q0 192 -27 288t-107 132z" />
<glyph unicode="}" horiz-adv-x="1464" d="M0 -123h369v512q0 171 137.5 275.5t384.5 144.5v20q-247 40 -384.5 144.5t-137.5 275.5v512h-369v82h369q153 0 283 -18t246 -59.5t197 -105.5t128 -160.5t47 -219.5q0 -192 26.5 -288t106.5 -132v-82q-80 -36 -106.5 -132t-26.5 -288q0 -123 -47 -219.5t-128 -160.5 t-197 -105.5t-246 -59.5t-283 -18h-369v82z" />
<glyph unicode="&#xa4;" horiz-adv-x="2334" d="M41 532v82h143v82h-143v82h143v860h1147q196 0 360.5 -28t291.5 -84t198.5 -147.5t71.5 -211.5t-71.5 -211.5t-198.5 -147.5t-291.5 -84t-360.5 -28h-327v-82h942l327 -614h-932l-286 532h-51v-532h-820v532h-143zM1004 778h327v778h-327v-778z" />
<glyph unicode="&#xab;" horiz-adv-x="942" d="M61 573v82l625 523l51 -62l-594 -502l594 -501l-51 -62zM328 573v82l501 420l52 -61l-471 -400l471 -399l-52 -61z" />
<glyph unicode="&#xad;" d="M61 717v82h1024v-82h-1024z" />
<glyph unicode="&#xb6;" horiz-adv-x="2560" d="M61 1085q0 126 33.5 222.5t92 158.5t145 101t185 55t220.5 16h1782v-82h-143v-1556h-738v1556h-163v-1556h-738v532q-124 0 -220.5 14t-184.5 51t-145.5 98t-91.5 159.5t-34 230.5z" />
<glyph unicode="&#xbb;" horiz-adv-x="942" d="M61 215l471 399l-471 400l52 61l501 -420v-82l-501 -419zM205 113l594 501l-594 502l51 62l625 -523v-82l-625 -522z" />
<glyph unicode="&#x2000;" horiz-adv-x="921" />
<glyph unicode="&#x2001;" horiz-adv-x="1843" />
<glyph unicode="&#x2002;" horiz-adv-x="921" />
<glyph unicode="&#x2003;" horiz-adv-x="1843" />
<glyph unicode="&#x2004;" horiz-adv-x="614" />
<glyph unicode="&#x2005;" horiz-adv-x="460" />
<glyph unicode="&#x2006;" horiz-adv-x="307" />
<glyph unicode="&#x2007;" horiz-adv-x="307" />
<glyph unicode="&#x2008;" horiz-adv-x="230" />
<glyph unicode="&#x2009;" horiz-adv-x="368" />
<glyph unicode="&#x200a;" horiz-adv-x="102" />
<glyph unicode="&#x2010;" d="M61 717v82h1024v-82h-1024z" />
<glyph unicode="&#x2011;" d="M61 717v82h1024v-82h-1024z" />
<glyph unicode="&#x2012;" d="M61 717v82h1024v-82h-1024z" />
<glyph unicode="&#x2013;" d="M61 717v82h1024v-82h-1024z" />
<glyph unicode="&#x2014;" horiz-adv-x="1556" d="M61 717v82h1434v-82h-1434z" />
<glyph unicode="&#x2018;" horiz-adv-x="983" d="M164 1044v103q0 243 75.5 367t252.5 124v-82q-117 0 -168.5 -68t-67.5 -208q48 31 174 31h123q130 0 198 -38t68 -126v-103q0 -88 -68 -125.5t-198 -37.5h-123q-130 0 -198 37.5t-68 125.5z" />
<glyph unicode="&#x2019;" horiz-adv-x="983" d="M164 1372v103q0 88 68 125.5t198 37.5h123q130 0 198 -37.5t68 -125.5v-103q0 -243 -75 -367t-252 -124v82q116 0 167.5 67.5t67.5 208.5q-48 -31 -174 -31h-123q-130 0 -198 38t-68 126z" />
<glyph unicode="&#x201c;" horiz-adv-x="1474" d="M164 1044v103q0 243 75.5 367t252.5 124v-82q-117 0 -168.5 -68t-67.5 -208q48 31 174 31q130 0 198 -38t68 -126v-103q0 -88 -68 -125.5t-198 -37.5t-198 37.5t-68 125.5zM778 1044v103q0 243 75.5 367t252.5 124v-82q-117 0 -168.5 -68t-67.5 -208q48 31 174 31 q130 0 198.5 -38t68.5 -126v-103q0 -88 -68 -125.5t-199 -37.5q-130 0 -198 37.5t-68 125.5z" />
<glyph unicode="&#x201d;" horiz-adv-x="1474" d="M164 1372v103q0 88 68 125.5t198 37.5t198 -37.5t68 -125.5v-103q0 -243 -75 -367t-252 -124v82q116 0 167.5 67.5t67.5 208.5q-48 -31 -174 -31q-130 0 -198 38t-68 126zM778 1372v103q0 88 68 125.5t198 37.5q131 0 199 -37.5t68 -125.5v-103q0 -242 -75.5 -366.5 t-252.5 -124.5v82q117 0 168.5 68t67.5 208q-48 -31 -175 -31q-130 0 -198 38t-68 126z" />
<glyph unicode="&#x2022;" horiz-adv-x="1228" d="M287 768v102q0 123 71.5 195t194.5 72h123q123 0 194.5 -72t71.5 -195v-102q0 -123 -71.5 -194.5t-194.5 -71.5h-123q-123 0 -194.5 71.5t-71.5 194.5z" />
<glyph unicode="&#x2026;" horiz-adv-x="2375" d="M164 164v102q0 88 68 126t198 38t198 -38t68 -126v-102q0 -88 -68 -126t-198 -38t-198 38t-68 126zM922 164v102q0 88 68 126t198 38t198 -38t68 -126v-102q0 -88 -68 -126t-198 -38t-198 38t-68 126zM1679 164v102q0 88 68.5 126t198.5 38t198 -38t68 -126v-102 q0 -88 -68 -126t-198 -38t-198.5 38t-68.5 126z" />
<glyph unicode="&#x202f;" horiz-adv-x="368" />
<glyph unicode="&#x2039;" horiz-adv-x="962" d="M61 573v82l799 461l41 -72l-747 -430l747 -430l-41 -71z" />
<glyph unicode="&#x203a;" horiz-adv-x="962" d="M61 184l748 430l-748 430l41 72l799 -461v-82l-799 -460z" />
<glyph unicode="&#x205f;" horiz-adv-x="460" />
<glyph unicode="&#x20ac;" horiz-adv-x="2293" d="M20 655v82h144v205h-103v82h113q15 110 49 199.5t81.5 155t112 114.5t135 80.5t157 51t172 27t184.5 7.5h369q99 0 179 -5t162.5 -19.5t145.5 -38.5t119.5 -63t93 -92t57.5 -127.5t21 -166.5h-82q0 79 -20 143t-53 108.5t-85.5 77t-108.5 51.5t-130.5 30.5t-143.5 15.5 t-155 4h-369v-553h717v-82h-717v-205h676v-82h-676v-594h369q86 0 155 4t143.5 15.5t131 31t108.5 52t85 77t53 108.5t20 143h82q0 -92 -21 -166.5t-57.5 -127.5t-93 -92t-119.5 -63t-145.5 -38.5t-162.5 -19.5t-179 -5h-369q-102 0 -188.5 8t-174 29t-158.5 54.5t-135.5 86 t-110.5 122t-78.5 164.5t-45.5 211h-154z" />
<glyph unicode="&#x25fc;" horiz-adv-x="1228" d="M0 0v1229h1229v-1229h-1229z" />
</font>
</defs>
</svg>
